+ ตอบกลับกระทู้
สรุปผลการค้นหา 1 ถึง 6 จากทั้งหมด 6
  1. #1
    Administrators รูปส่วนตัว Duckload.us
    สมัครเมื่อ
    Dec 2010
    โพสต์
    119,930
    Thanks
    7
    Thanked 125,338 Times in 56,064 Posts

    Lightbulb [เกาหลี]-[* ใหม่!! NETFLIX *] The School Nurse Files (2020) : ครูพยาบาลแปลก ปีศาจป่วน - Season 1 [เสียงไทย 5.1 + เสียงเกาหลี 5.1] [บรรยายไทย + อังกฤษ] [เสียง + ซับไทย Master From Netflix + ซับ SRT , PGS]-WEB-DL.H.264.1080p. [Hi-def rip from Master]



    The School Nurse Files ครูพยาบาลแปลก ปีศาจป่วน ออริจินัลซีรีส์สัญชาติเกาหลีเรื่องใหม่จาก Netflix ดึงดูดความสนใจคอซีรีส์ด้วยพล็อตแฟนตาซีสุดล้ำ กับการเผชิญหน้าไล่ล่าปีศาจที่มาในรูปแบบเจลลี่ในโรง เรียนมัธยม ผ่านฝีมือการแสดงของ 2 นักแสดงแถวหน้า จองยูมี – นัมจูฮยอก ซึ่งจากโปสเตอร์และทีเซอร์ที่ปล่อยออกมา เชื่อว่าจะทำให้หลายคนเห็นภาพพล็อดชัดยิ่งขึ้น และตื่นเต้นสำหรับการรอคอยชมมากกว่าเดิม

    The School Nurse Files เป็นซีรีส์แนวแฟนตาซี ความยาว 6 ตอน ที่เล่าถึงความลับและความวุ่นวายในโรงเรียนมัธยมปลาย แห่งหนึ่ง ผ่านตัวละครหลัก อันอึนยอง (รับบทโดย จองยูมี) ครูพยาบาลที่มีพลังเหนือธรรมชาติมองเห็นปีศาจร้ายที่ มาในรูปแบบเจลลี่ นั่นทำให้เธอต้องช่วยปกป้องนักเรียนจากเหตุร้าย และพยายามจะปราบพวกมันด้วยวิธีที่แปลกประหลาด ขณะเดียวกัน ฮงอินพโย (รับบทโดย นัมจูฮยอก) ครูสอนภาษาจีน ที่เป็นหลานชายของผู้ก่อตั้งโรงเรียน ก็ยังไม่รู้หลายอย่างเกี่ยวกับความลับในห้องใต้ดินขอ งโรงเรียน แต่เขาก็มีพลังพิเศษที่เป็นเกราะป้องกันภัยอันตรายจา กเหล่าปีศาจ ทั้งยังช่วยมอบพลังให้กับอันอึนยองได้ ทั้งคู่แท็กทีมกันต่อสู้และค้นหาความลับที่ยังไม่ได้ รับการเปิดเผย


    Format : Matroska
    Format version : Version 4
    File size : 2.03 GiB
    Duration : 50 min 5 s
    Overall bit rate mode : Variable
    Overall bit rate : 5 795 kb/s
    Movie name : The.School.Nurse.Files.S01E01.1080p.NF.WEB-DL.DDP5.1.x264_SkiesIT
    Encoded date : UTC 2020-09-25 10:47:15
    Writing application : mkvmerge v49.0.0 ('Sick Of Losing Soulmates') 64-bit
    Writing library : libebml v1.4.0 + libmatroska v1.6.1

    Video
    ID : 1
    Format : AVC
    Format/Info : Advanced Video Codec
    Format profile : [email protected]
    Format settings : CABAC / 3 Ref Frames
    Format settings, CABAC : Yes
    Format settings, Reference frames : 3 frames
    Codec ID : V_MPEG4/ISO/AVC
    Duration : 50 min 5 s
    Bit rate mode : Variable
    Bit rate : 4 640 kb/s
    Maximum bit rate : 6 960 kb/s
    Width : 1 920 pixels
    Height : 1 080 pixels
    Display aspect ratio : 16:9
    Frame rate mode : Constant
    Frame rate : 23.976 (24000/1001) FPS
    Color space : YUV
    Chroma subsampling : 4:2:0
    Bit depth : 8 bits
    Scan type : Progressive
    Bits/(Pixel*Frame) : 0.093
    Stream size : 1.56 GiB (77%)
    Title : The.School.Nurse.Files.S01E01.1080p.NF.WEB-DL.DDP5.1.x264_SkiesIT
    Writing library : x264 core 148 r2722 1b0121b
    Encoding settings : cabac=1 / ref=3 / deblock=1:0:0 / analyse=0x1:0x111 / me=umh / subme=10 / psy=1 / psy_rd=1.00:0.00 / mixed_ref=1 / me_range=24 / chroma_me=1 / trellis=2 / 8x8dct=0 / cqm=0 / deadzone=21,11 / fast_pskip=1 / chroma_qp_offset=-2 / threads=8 / lookahead_threads=1 / sliced_threads=0 / nr=0 / decimate=1 / interlaced=0 / bluray_compat=0 / stitchable=1 / constrained_intra=0 / bframes=2 / b_pyramid=0 / b_adapt=2 / b_bias=0 / direct=3 / weightb=1 / open_gop=0 / weightp=2 / keyint=250 / keyint_min=23 / scenecut=0 / intra_refresh=0 / rc_lookahead=48 / rc=2pass / mbtree=1 / bitrate=4640 / ratetol=1.0 / qcomp=0.50 / qpmin=6 / qpmax=51 / qpstep=4 / cplxblur=20.0 / qblur=0.5 / vbv_maxrate=6960 / vbv_bufsize=9280 / nal_hrd=vbr / filler=0 / ip_ratio=1.40 / aq=1:1.00
    Language : Korean
    Default : Yes
    Forced : No

    Audio #1
    ID : 2
    Format : E-AC-3
    Format/Info : Enhanced AC-3
    Commercial name : Dolby Digital Plus
    Codec ID : A_EAC3
    Duration : 50 min 5 s
    Bit rate mode : Constant
    Bit rate : 640 kb/s
    Channel(s) : 6 channels
    Channel layout : L R C LFE Ls Rs
    Sampling rate : 48.0 kHz
    Frame rate : 31.250 FPS (1536 SPF)
    Compression mode : Lossy
    Stream size : 229 MiB (11%)
    Language : Korean
    Service kind : Complete Main
    Default : No
    Forced : No

    Audio #2
    ID : 3
    Format : E-AC-3
    Format/Info : Enhanced AC-3
    Commercial name : Dolby Digital Plus
    Codec ID : A_EAC3
    Duration : 50 min 5 s
    Bit rate mode : Constant
    Bit rate : 640 kb/s
    Channel(s) : 6 channels
    Channel layout : L R C LFE Ls Rs
    Sampling rate : 48.0 kHz
    Frame rate : 31.250 FPS (1536 SPF)
    Compression mode : Lossy
    Stream size : 229 MiB (11%)
    Language : Thai
    Service kind : Complete Main
    Default : Yes
    Forced : No

    Text #1
    ID : 4
    Format : UTF-8
    Codec ID : S_TEXT/UTF8
    Codec ID/Info : UTF-8 Plain Text
    Duration : 48 min 45 s
    Bit rate : 78 b/s
    Count of elements : 409
    Stream size : 28.1 KiB (0%)
    Title : Thai SRT From Netflix
    Language : Thai
    Default : Yes
    Forced : No

    Text #2
    ID : 5
    Format : UTF-8
    Codec ID : S_TEXT/UTF8
    Codec ID/Info : UTF-8 Plain Text
    Duration : 45 min 50 s
    Bit rate : 9 b/s
    Count of elements : 37
    Stream size : 3.26 KiB (0%)
    Title : Thai SRT From Netflix Forced
    Language : Thai
    Default : No
    Forced : No

    Text #3
    ID : 6
    Format : UTF-8
    Codec ID : S_TEXT/UTF8
    Codec ID/Info : UTF-8 Plain Text
    Duration : 48 min 47 s
    Bit rate : 35 b/s
    Count of elements : 413
    Stream size : 12.6 KiB (0%)
    Title : English SRT
    Language : English
    Default : No
    Forced : No

    Text #4
    ID : 7
    Format : PGS
    Muxing mode : zlib
    Codec ID : S_HDMV/PGS
    Codec ID/Info : Picture based subtitle format used on BDs/HD-DVDs
    Duration : 48 min 45 s
    Bit rate : 23.7 kb/s
    Count of elements : 818
    Stream size : 8.26 MiB (0%)
    Title : Thai PGS [Angsana]
    Language : Thai
    Default : No
    Forced : No

    Text #5
    ID : 8
    Format : PGS
    Muxing mode : zlib
    Codec ID : S_HDMV/PGS
    Codec ID/Info : Picture based subtitle format used on BDs/HD-DVDs
    Duration : 48 min 45 s
    Bit rate : 23.7 kb/s
    Count of elements : 818
    Stream size : 8.26 MiB (0%)
    Title : Thai PGS [Angsana Yellow]
    Language : Thai
    Default : No
    Forced : No

    Text #6
    ID : 9
    Format : PGS
    Muxing mode : zlib
    Codec ID : S_HDMV/PGS
    Codec ID/Info : Picture based subtitle format used on BDs/HD-DVDs
    Duration : 48 min 45 s
    Bit rate : 23.4 kb/s
    Count of elements : 818
    Stream size : 8.16 MiB (0%)
    Title : Thai PGS [Sarabun]
    Language : Thai
    Default : No
    Forced : No

    Text #7
    ID : 10
    Format : PGS
    Muxing mode : zlib
    Codec ID : S_HDMV/PGS
    Codec ID/Info : Picture based subtitle format used on BDs/HD-DVDs
    Duration : 48 min 45 s
    Bit rate : 23.4 kb/s
    Count of elements : 818
    Stream size : 8.16 MiB (0%)
    Title : Thai PGS [Sarabun Yellow]
    Language : Thai
    Default : No
    Forced : No

    Text #8
    ID : 11
    Format : PGS
    Muxing mode : zlib
    Codec ID : S_HDMV/PGS
    Codec ID/Info : Picture based subtitle format used on BDs/HD-DVDs
    Duration : 48 min 47 s
    Bit rate : 21.2 kb/s
    Count of elements : 826
    Stream size : 7.41 MiB (0%)
    Title : English PGS
    Language : English
    Default : No
    Forced : No










    Download: filecondo
    1 http://www.filecondo.com/dl.php?f=j3a6fe1Km8js
    2 http://www.filecondo.com/dl.php?f=k1c5b21Km8mo
    3 http://www.filecondo.com/dl.php?f=F28a201Km8qb
    4 http://www.filecondo.com/dl.php?f=615cb01Km8u1
    5 http://www.filecondo.com/dl.php?f=m630011Km8w1
    6 http://www.filecondo.com/dl.php?f=dab2151Km8y0

    Download: cornfile
    The.School.Nurse.Files.S01E01.1080p.NF.WEB-DL.DDP5.1.x264_SkiesIT.mkv - 2.0 GB
    The.School.Nurse.Files.S01E02.1080p.NF.WEB-DL.DDP5.1.x264_SkiesIT.mkv - 2.2 GB
    The.School.Nurse.Files.S01E03.1080p.NF.WEB-DL.DDP5.1.x264_SkiesIT.mkv - 1.7 GB
    The.School.Nurse.Files.S01E04.1080p.NF.WEB-DL.DDP5.1.x264_SkiesIT.mkv - 1.5 GB
    The.School.Nurse.Files.S01E05.1080p.NF.WEB-DL.DDP5.1.x264_SkiesIT.mkv - 2.0 GB
    The.School.Nurse.Files.S01E06.1080p.NF.WEB-DL.DDP5.1.x264_SkiesIT.mkv - 2.3 GB

  2. The Following 4 Users Say Thank You to Duckload.us For This Useful Post:

    agaligo (10-01-2020), kappa (09-29-2020), Timarat (10-01-2020), Wesker_TOT (09-28-2020)

  3. #2
    Senior Member
    สมัครเมื่อ
    Jul 2013
    โพสต์
    1,299
    Thanks
    0
    Thanked 0 Times in 0 Posts
    ขอบคุณครับ รอ Cornfile

  4. #3
    Senior Member
    สมัครเมื่อ
    Dec 2013
    โพสต์
    2,430
    Thanks
    4,355
    Thanked 0 Times in 0 Posts
    ขอบคุณนะครับ...

  5. #4
    Senior Member
    สมัครเมื่อ
    Jul 2012
    โพสต์
    7,129
    Thanks
    0
    Thanked 0 Times in 0 Posts
    ขอบคุณมากจ้า

  6. #5
    Senior Member
    สมัครเมื่อ
    May 2012
    โพสต์
    682
    Thanks
    0
    Thanked 0 Times in 0 Posts
    ขอบคุณครับ

  7. #6
    Senior Member
    สมัครเมื่อ
    Dec 2011
    โพสต์
    2,402
    Thanks
    17
    Thanked 0 Times in 0 Posts
    ขอบคุณค่ะ

+ ตอบกลับกระทู้

ข้อมูลกระทู้

Users Browsing this Thread

ในขณะนี้มี 1 ท่านดูกระทู้อยู่. (0 สมาชิกและ 1 ผู้เยี่ยมชม)

     

กฎการโพสต์ข้อความ

  • ท่าน ไม่สามารถ ตั้งกระทู้ใหม่ได้
  • ท่าน ไม่สามารถ ตอบกระทู้ได้
  • ท่าน ไม่สามารถ แนบไฟล์ได้
  • ท่าน ไม่สามารถ แก้ไขข้อความโพสต์ได้
  • BB code สถานะ เปิด
  • Smilies สถานะ เปิด
  • [IMG] สถานะ เปิด
  • HTML สถานะ ปิด