+ ตอบกลับกระทู้
สรุปผลการค้นหา 1 ถึง 2 จากทั้งหมด 2
  1. #1
    Administrators รูปส่วนตัว Duckload.us
    สมัครเมื่อ
    Dec 2010
    โพสต์
    119,943
    Thanks
    7
    Thanked 125,360 Times in 56,076 Posts

    Lightbulb [จีน]-The Sleepless Princess (2020) คำสาปนิทราอลวน จบ-Encode.H.264.720p+1080p. [From TV]-[Soundtrack บรรยายไทย]



    The Sleepless Princess (2020) คำสาปนิทราอลวน ซับไทย
    ละครเรื่องนี้หมุนรอบตัวนายพลเหยาเหยาผู้ใจดีที่ซื่อ สัตย์และเยือกเย็นผู้สืบสวนเรื่องลึกลับเกี่ยวกับการ ตายของพี่ชายของเขาและเจ้าหญิงผู้เสียชีวิตชื่อชูเยผ ู้ทนทุกข์ทรมานจากการนอนไม่หลับเนื่องจากอุบัติเหตุใ นวัยเด็กและใช้เวลาในการอ่านนวนิยายรัก .

    Format : MPEG-4
    Format profile : Base Media
    Codec ID : isom (isom/iso2/avc1/mp41)
    File size : 1.25 GiB
    Duration : 39 min 55 s
    Overall bit rate : 4 483 kb/s

    Video
    ID : 1
    Format : AVC
    Format/Info : Advanced Video Codec
    Format profile : [email protected]
    Format settings : CABAC / 4 Ref Frames
    Format settings, CABAC : Yes
    Format settings, Reference frames : 4 frames
    Format settings, GOP : M=1, N=76
    Codec ID : avc1
    Codec ID/Info : Advanced Video Coding
    Duration : 39 min 55 s
    Duration_FirstFrame : 46 ms
    Bit rate : 4 271 kb/s
    Width : 1 918 pixels
    Height : 1 080 pixels
    Display aspect ratio : 16:9
    Frame rate mode : Constant
    Frame rate : 25.000 FPS
    Color space : YUV
    Chroma subsampling : 4:2:0
    Bit depth : 8 bits
    Scan type : Progressive
    Bits/(Pixel*Frame) : 0.082
    Stream size : 1.19 GiB (95%)
    Tagged date : UTC 2020-08-11 07:39:42
    Codec configuration box : avcC

    Audio
    ID : 2
    Format : AAC LC
    Format/Info : Advanced Audio Codec Low Complexity
    Codec ID : mp4a-40-2
    Duration : 39 min 55 s
    Bit rate mode : Constant
    Bit rate : 210 kb/s
    Channel(s) : 2 channels
    Channel layout : L R
    Sampling rate : 44.1 kHz
    Frame rate : 43.066 FPS (1024 SPF)
    Compression mode : Lossy
    Stream size : 59.9 MiB (5%)
    Default : Yes
    Alternate group : 1
    Tagged date : UTC 2020-08-11 07:39:42





    1
    http://www.filecondo.com/dl.php?f=tb072e1KnE2w
    2
    http://www.filecondo.com/dl.php?f=M4c5011KnE3s
    3
    http://www.filecondo.com/dl.php?f=Xcfab91KnE4q
    4
    http://www.filecondo.com/dl.php?f=d17cb21KnE5o
    5
    http://www.filecondo.com/dl.php?f=24356a1KnE6u
    6
    http://www.filecondo.com/dl.php?f=E7b1631KnE7k
    7
    http://www.filecondo.com/dl.php?f=Rc71281KnE8i
    8
    http://www.filecondo.com/dl.php?f=B1e4e21KnE9g
    9
    http://www.filecondo.com/dl.php?f=P2795f1KnEae
    10
    http://www.filecondo.com/dl.php?f=Hfdb771KnEbi
    11
    http://www.filecondo.com/dl.php?f=Y66e851KnEca
    12
    http://www.filecondo.com/dl.php?f=6ef0861KnEd9
    13
    http://www.filecondo.com/dl.php?f=K1fa501KnEe8
    14
    http://www.filecondo.com/dl.php?f=kcbeb81KnEf4
    15
    http://www.filecondo.com/dl.php?f=rabcad1KnEg3
    16
    http://www.filecondo.com/dl.php?f=3f43771KnEh1
    17
    http://www.filecondo.com/dl.php?f=Sb58ef1KnEi0
    18
    http://www.filecondo.com/dl.php?f=S9c95a1KnEj2
    19
    http://www.filecondo.com/dl.php?f=9c7b3c1KnEjZ
    20
    http://www.filecondo.com/dl.php?f=C748931KnEkX
    21
    http://www.filecondo.com/dl.php?f=s295891KnElW
    22
    http://www.filecondo.com/dl.php?f=gee6031KnEmO
    23
    http://www.filecondo.com/dl.php?f=I78f261KnEnN
    24
    http://www.filecondo.com/dl.php?f=0ae8cf1KnEoL
    25
    http://www.filecondo.com/dl.php?f=3e2f6d1KnEpI
    26
    http://www.filecondo.com/dl.php?f=a52d021KnEqG
    24
    http://www.filecondo.com/dl.php?f=0ae8cf1KnEoL
    27
    http://www.filecondo.com/dl.php?f=R6c0c31KnErF
    28
    http://www.filecondo.com/dl.php?f=J654071KnEsE
    29
    http://www.filecondo.com/dl.php?f=B5dc1b1KnEtB
    30
    http://www.filecondo.com/dl.php?f=h988b81KnEuz
    31
    http://www.filecondo.com/dl.php?f=je92031KnEvx
    33
    http://www.filecondo.com/dl.php?f=defe831KnExs
    34
    http://www.filecondo.com/dl.php?f=de0ffa1KnEyr
    35
    http://www.filecondo.com/dl.php?f=X2796a1KnEzq

  2. #2
    Junior Member
    สมัครเมื่อ
    May 2015
    โพสต์
    27
    Thanks
    1
    Thanked 0 Times in 0 Posts
    ตอนที่ 32 ไม่มีครับ

+ ตอบกลับกระทู้

ข้อมูลกระทู้

Users Browsing this Thread

ในขณะนี้มี 1 ท่านดูกระทู้อยู่. (0 สมาชิกและ 1 ผู้เยี่ยมชม)

     

กฎการโพสต์ข้อความ

  • ท่าน ไม่สามารถ ตั้งกระทู้ใหม่ได้
  • ท่าน ไม่สามารถ ตอบกระทู้ได้
  • ท่าน ไม่สามารถ แนบไฟล์ได้
  • ท่าน ไม่สามารถ แก้ไขข้อความโพสต์ได้
  • BB code สถานะ เปิด
  • Smilies สถานะ เปิด
  • [IMG] สถานะ เปิด
  • HTML สถานะ ปิด