+ ตอบกลับกระทู้
สรุปผลการค้นหา 1 ถึง 3 จากทั้งหมด 3
  1. #1
    Administrators รูปส่วนตัว Duckload.us
    สมัครเมื่อ
    Dec 2010
    โพสต์
    119,649
    Thanks
    7
    Thanked 125,200 Times in 56,001 Posts

    Angry ภาพยนตร์ออสเตรเลีย แนววิทยาศาสตร์ระทึกขวัญลึกลับ เรื่อง 2067 ( 2020 ) SOUND ENG MULTI SUB มีซับไทย-WEB-DL.H.264.1080p. [Modified]-[Soundtrack บรรยายไทย]



    เรื่องย่อ :

    การเดินทางสู่อนาคตของชายคนหนึ่งเพื่อช่วยโลกที่กำลั งจะตาย


    Format : Matroska
    Format version : Version 4
    File size : 6.98 GiB
    Duration : 1 h 54 min
    Overall bit rate : 8 725 kb/s
    Encoded date : UTC 2020-10-15 12:43:53
    Writing application : mkvmerge v49.0.0 ('Sick Of Losing Soulmates') 64-bit
    Writing library : libebml v1.4.0 + libmatroska v1.6.1

    Video
    ID : 1
    Format : AVC
    Format/Info : Advanced Video Codec
    Format profile : [email protected]
    Format settings : CABAC / 4 Ref Frames
    Format settings, CABAC : Yes
    Format settings, Reference frames : 4 frames
    Codec ID : V_MPEG4/ISO/AVC
    Duration : 1 h 54 min
    Bit rate mode : Constant
    Bit rate : 8 083 kb/s
    Nominal bit rate : 10 000 kb/s
    Width : 1 920 pixels
    Height : 816 pixels
    Display aspect ratio : 2.35:1
    Frame rate mode : Constant
    Frame rate : 23.976 (24000/1001) FPS
    Color space : YUV
    Chroma subsampling : 4:2:0
    Bit depth : 8 bits
    Scan type : Progressive
    Bits/(Pixel*Frame) : 0.215
    Stream size : 6.46 GiB (93%)
    Default : Yes
    Forced : No
    Color range : Limited
    Color primaries : BT.709
    Transfer characteristics : BT.709
    Matrix coefficients : BT.709

    Audio
    ID : 2
    Format : E-AC-3
    Format/Info : Enhanced AC-3
    Commercial name : Dolby Digital Plus
    Codec ID : A_EAC3
    Duration : 1 h 54 min
    Bit rate mode : Constant
    Bit rate : 640 kb/s
    Channel(s) : 6 channels
    Channel layout : L R C LFE Ls Rs
    Sampling rate : 48.0 kHz
    Frame rate : 31.250 FPS (1536 SPF)
    Compression mode : Lossy
    Stream size : 524 MiB (7%)
    Language : English
    Service kind : Complete Main
    Default : Yes
    Forced : No

    Text
    ID : 3
    Format : UTF-8
    Codec ID : S_TEXT/UTF8
    Codec ID/Info : UTF-8 Plain Text
    Duration : 1 h 46 min
    Bit rate : 45 b/s
    Count of elements : 1247
    Stream size : 35.4 KiB (0%)
    Default : Yes
    Forced : No





    http://cornfile.com/94f41rpg2t7e
    sub
    http://cornfile.com/6va4tzp9cmbh

  2. The Following User Says Thank You to Duckload.us For This Useful Post:

    noi54 (10-19-2020)

  3. #2
    Junior Member รูปส่วนตัว TESCO
    สมัครเมื่อ
    Mar 2016
    โพสต์
    12
    Thanks
    3
    Thanked 1 Time in 1 Post
    อะจ๊าก... กูเกิ้ลแปล

  4. #3
    Senior Member
    สมัครเมื่อ
    Jul 2013
    โพสต์
    1,280
    Thanks
    0
    Thanked 0 Times in 0 Posts
    ขอบคุณครับ

+ ตอบกลับกระทู้

ข้อมูลกระทู้

Users Browsing this Thread

ในขณะนี้มี 1 ท่านดูกระทู้อยู่. (0 สมาชิกและ 1 ผู้เยี่ยมชม)

     

กฎการโพสต์ข้อความ

  • ท่าน ไม่สามารถ ตั้งกระทู้ใหม่ได้
  • ท่าน ไม่สามารถ ตอบกระทู้ได้
  • ท่าน ไม่สามารถ แนบไฟล์ได้
  • ท่าน ไม่สามารถ แก้ไขข้อความโพสต์ได้
  • BB code สถานะ เปิด
  • Smilies สถานะ เปิด
  • [IMG] สถานะ เปิด
  • HTML สถานะ ปิด