+ ตอบกลับกระทู้
สรุปผลการค้นหา 1 ถึง 2 จากทั้งหมด 2
  1. #1
    Administrators รูปส่วนตัว Duckload.us
    สมัครเมื่อ
    Dec 2010
    โพสต์
    119,674
    Thanks
    7
    Thanked 125,220 Times in 56,008 Posts

    Angry [เกาหลี]-The Divine Move 2:The Wrathful (2019) เซียนหมาก โค่นโคตรเซียน 2-WEB-DL.H.264.1080p. [Master]-[พากย์ไทยมาสเตอร์ ไม่มีบรรยาย]



    The Divine Move 2: The Wrathful (2019) ชื่อหนังต้นฉบับ: Shinui Han Soo: Gwisoopyeon กวีซู (ควอนซังอู) ชายที่สูญเสียทุกสิ่งทุกอย่างไปจากการเล่นหมากล้อม แต่ด้วยความช่วยเหลือจากอาจารย์ฮออิลโด (คิมซองคยุน) และอาจารย์ตง (คิมฮีวอน) ทำให้เขากลายเป็นผู้เล่นที่เก่งกาจและกลับมาเล่นเกมเ ดิมพันสูงอีกครั้ง เขาจึงตามหาเซียนหมากล้อมเพื่อท้าประลองไปทั่วประเทศ

    Format : Matroska
    Format version : Version 2
    File size : 3.85 GiB
    Duration : 1 h 45 min
    Overall bit rate mode : Constant
    Overall bit rate : 5 202 kb/s
    Movie name : The Divine Move 2 The Wrathful.trim01
    Encoded date : UTC 2020-10-17 21:41:16
    Writing application : DVDFab 11.0.3.1
    Writing library : libebml v1.3.4 + libmatroska v1.4.5

    Video
    ID : 1
    Format : AVC
    Format/Info : Advanced Video Codec
    Format profile : [email protected]
    Format settings : CABAC / 4 Ref Frames
    Format settings, CABAC : Yes
    Format settings, Reference frames : 4 frames
    Format settings, GOP : M=3, N=24
    Codec ID : V_MPEG4/ISO/AVC
    Duration : 1 h 45 min
    Bit rate mode : Constant
    Bit rate : 5 009 kb/s
    Nominal bit rate : 5 558 kb/s
    Width : 1 920 pixels
    Height : 804 pixels
    Display aspect ratio : 2.40:1
    Frame rate mode : Constant
    Frame rate : 24.000 FPS
    Color space : YUV
    Chroma subsampling : 4:2:0
    Bit depth : 8 bits
    Scan type : Progressive
    Bits/(Pixel*Frame) : 0.135
    Stream size : 3.70 GiB (96%)
    Default : Yes
    Forced : No
    Color range : Limited
    Color primaries : BT.709
    Transfer characteristics : BT.709
    Matrix coefficients : BT.709

    Audio
    ID : 2
    Format : AC-3
    Format/Info : Audio Coding 3
    Commercial name : Dolby Digital
    Codec ID : A_AC3
    Duration : 1 h 45 min
    Bit rate mode : Constant
    Bit rate : 192 kb/s
    Channel(s) : 2 channels
    Channel layout : L R
    Sampling rate : 48.0 kHz
    Frame rate : 31.250 FPS (1536 SPF)
    Compression mode : Lossy
    Stream size : 145 MiB (4%)
    Service kind : Complete Main
    Default : Yes
    Forced : No





    The Divine Move (2014) เซียนหมาก โค่นโคตรเซียน.mkv - 2.5 GB
    The Divine Move 2 The Wrathful.mkv - 3.8 GB

  2. The Following User Says Thank You to Duckload.us For This Useful Post:

    noi54 (10-19-2020)

  3. #2
    Senior Member
    สมัครเมื่อ
    Jul 2013
    โพสต์
    1,282
    Thanks
    0
    Thanked 0 Times in 0 Posts
    ขอบคุณครับ

+ ตอบกลับกระทู้

ข้อมูลกระทู้

Users Browsing this Thread

ในขณะนี้มี 1 ท่านดูกระทู้อยู่. (0 สมาชิกและ 1 ผู้เยี่ยมชม)

     

กฎการโพสต์ข้อความ

  • ท่าน ไม่สามารถ ตั้งกระทู้ใหม่ได้
  • ท่าน ไม่สามารถ ตอบกระทู้ได้
  • ท่าน ไม่สามารถ แนบไฟล์ได้
  • ท่าน ไม่สามารถ แก้ไขข้อความโพสต์ได้
  • BB code สถานะ เปิด
  • Smilies สถานะ เปิด
  • [IMG] สถานะ เปิด
  • HTML สถานะ ปิด