+ ตอบกลับกระทู้
สรุปผลการค้นหา 1 ถึง 5 จากทั้งหมด 5
  1. #1
    Administrators รูปส่วนตัว Duckload.us
    สมัครเมื่อ
    Dec 2010
    โพสต์
    120,637
    Thanks
    7
    Thanked 125,990 Times in 56,313 Posts

    Angry [ฝรั่ง]-[* ใหม่ Amazon Prime *] Borat Subsequent Moviefilm (2020) : โบแรต 2 สินบนสะท้านโลก [เสียงอังกฤษ 5.1] [บรรยายไทย + อังกฤษ] [ซับไทย Master From Amazon Prime + ซับ SRT , PGS]-WEB-DL.H.264.1080p.



    หนังยังคงแนวทางสุดป่วนไว้ครบถ้วน ทั้งการถ่ายแนวแกล้งคน ใส่มุกหยาบโลน มุกทางเพศ อีกทั้งยังใส่การแซะการเมืองรวมถึงการแตะศีลธรรมจนเร าต้องปวดหัวไม่น้อย ซึ่งคราวนี้ตัวหนังก็ยังสอดแทรกสถานการณ์ปัจจุบันอย่ างโรคระบาดโควิด-19 ไว้ รวมถึงการกล่าวถึงรองประธานาธิบดีอย่าง ไมเคิน เพนซ์ ไว้อย่างชัดเจนอีกด้วย

    Borat 2 ใช้ชื่อทางการว่า Borat Subsequent Moviefilm: Delivery of Prodigious Bribe to American Regime for Make Benefit Once Glorious Nation of Kazakhstan แปลอย่างตรงตัวคือ ภาพยนตร์ภาคต่อโบแรต : การส่งเครื่องบรรณาการสุดมหัศจรรย์แด่ผู้ปกครองชาวอเ มริกันเพื่อผลประโยชน์สูงสุดของสาธารณรัฐคาซัคสถานที ่เคยรุ่งเรือง

    Borat 2 จะเล่าเรื่องหลังจาก โบแรต สกาดิแยฟ นักข่าวสัญชาติคาซัคสถานได้ฉายสารคดีที่ทำให้เขาเป็น ที่เกลียดชังที่บ้านเกิดแต่ได้กลายเป็นคนมีชื่อเสียง ที่สหรัฐ ฯ โบแรตจึงเดินทางมายังสหรัฐ ฯ อีกครั้งเพื่อทำภารกิจด้วยการถวายลูกสาวให้กับผู้ใกล ้ชิดกับผู้นำสหรัฐ ฯ ที่สุด ผ่านความพยายามการซ่อนตัวจากสาธารณะที่จะมาปั่นป่วนอ เมริกันชนอีกครั้ง

    ตัวหนังภาคต่อได้ เจสัน วอลิเนอร์ จากซีรี่ส์ The Last Man on Earth และ Parks and Recreation มารับหน้าที่กำกับ ส่วนตัวหนังก็ยังได้ ซาช่า บารอน โคเฮน แสดงนำเป็นโบแรต และร่วมเขียนบทเช่นเคย


    Format : Matroska
    Format version : Version 4
    File size : 6.41 GiB
    Duration : 1 h 36 min
    Overall bit rate : 9 553 kb/s
    Movie name : Borat.Subsequent.Moviefilm.2020.1080p.AMZN.WEB-DL.DDP5.1.x264_SkiesIT
    Encoded date : UTC 2020-10-23 14:22:44
    Writing application : mkvmerge v49.0.0 ('Sick Of Losing Soulmates') 64-bit
    Writing library : libebml v1.4.0 + libmatroska v1.6.1

    Video
    ID : 1
    Format : AVC
    Format/Info : Advanced Video Codec
    Format profile : [email protected]
    Format settings : CABAC / 4 Ref Frames
    Format settings, CABAC : Yes
    Format settings, Reference frames : 4 frames
    Codec ID : V_MPEG4/ISO/AVC
    Duration : 1 h 36 min
    Bit rate mode : Constant
    Bit rate : 8 802 kb/s
    Nominal bit rate : 10 000 kb/s
    Width : 1 920 pixels
    Height : 1 080 pixels
    Display aspect ratio : 16:9
    Frame rate mode : Constant
    Frame rate : 23.976 (24000/1001) FPS
    Color space : YUV
    Chroma subsampling : 4:2:0
    Bit depth : 8 bits
    Scan type : Progressive
    Bits/(Pixel*Frame) : 0.177
    Stream size : 5.91 GiB (92%)
    Title : Borat.Subsequent.Moviefilm.2020.1080p.AMZN.WEB-DL.DDP5.1.x264_SkiesIT
    Language : English
    Default : Yes
    Forced : No
    Color range : Limited
    Color primaries : BT.709
    Transfer characteristics : BT.709
    Matrix coefficients : BT.709

    Audio
    ID : 2
    Format : E-AC-3
    Format/Info : Enhanced AC-3
    Commercial name : Dolby Digital Plus
    Codec ID : A_EAC3
    Duration : 1 h 36 min
    Bit rate mode : Constant
    Bit rate : 640 kb/s
    Channel(s) : 6 channels
    Channel layout : L R C LFE Ls Rs
    Sampling rate : 48.0 kHz
    Frame rate : 31.250 FPS (1536 SPF)
    Compression mode : Lossy
    Stream size : 440 MiB (7%)
    Title : English
    Language : English
    Service kind : Complete Main
    Default : Yes
    Forced : No

    Text #1
    ID : 3
    Format : UTF-8
    Codec ID : S_TEXT/UTF8
    Codec ID/Info : UTF-8 Plain Text
    Duration : 1 h 35 min
    Bit rate : 164 b/s
    Count of elements : 1557
    Stream size : 115 KiB (0%)
    Title : Thai SRT From Amazon Prime
    Language : Thai
    Default : Yes
    Forced : No

    Text #2
    ID : 4
    Format : UTF-8
    Codec ID : S_TEXT/UTF8
    Codec ID/Info : UTF-8 Plain Text
    Duration : 1 h 35 min
    Bit rate : 84 b/s
    Count of elements : 1959
    Stream size : 59.1 KiB (0%)
    Title : English SRT
    Language : English
    Default : No
    Forced : No

    Text #3
    ID : 5
    Format : PGS
    Muxing mode : zlib
    Codec ID : S_HDMV/PGS
    Codec ID/Info : Picture based subtitle format used on BDs/HD-DVDs
    Duration : 1 h 35 min
    Bit rate : 49.8 kb/s
    Count of elements : 3114
    Stream size : 34.1 MiB (1%)
    Title : Thai PGS [Angsana]
    Language : Thai
    Default : No
    Forced : No

    Text #4
    ID : 6
    Format : PGS
    Muxing mode : zlib
    Codec ID : S_HDMV/PGS
    Codec ID/Info : Picture based subtitle format used on BDs/HD-DVDs
    Duration : 1 h 35 min
    Bit rate : 49.8 kb/s
    Count of elements : 3114
    Stream size : 34.1 MiB (1%)
    Title : Thai PGS [Angsana Yellow]
    Language : Thai
    Default : No
    Forced : No

    Text #5
    ID : 7
    Format : PGS
    Muxing mode : zlib
    Codec ID : S_HDMV/PGS
    Codec ID/Info : Picture based subtitle format used on BDs/HD-DVDs
    Duration : 1 h 35 min
    Bit rate : 49.1 kb/s
    Count of elements : 3114
    Stream size : 33.6 MiB (1%)
    Title : Thai PGS [Sarabun]
    Language : Thai
    Default : No
    Forced : No

    Text #6
    ID : 8
    Format : PGS
    Muxing mode : zlib
    Codec ID : S_HDMV/PGS
    Codec ID/Info : Picture based subtitle format used on BDs/HD-DVDs
    Duration : 1 h 35 min
    Bit rate : 49.1 kb/s
    Count of elements : 3114
    Stream size : 33.6 MiB (1%)
    Title : Thai PGS [Sarabun Yellow]
    Language : Thai
    Default : No
    Forced : No

    Text #7
    ID : 9
    Format : PGS
    Muxing mode : zlib
    Codec ID : S_HDMV/PGS
    Codec ID/Info : Picture based subtitle format used on BDs/HD-DVDs
    Duration : 1 h 35 min
    Bit rate : 50.6 kb/s
    Count of elements : 3918
    Stream size : 34.7 MiB (1%)
    Title : English PGS
    Language : English
    Default : No
    Forced : No











    Borat 1 - กระจอกข่าวเปิ่น..ป่วนเมืองมะกัน [2006].mkv - 3.5 GB
    Borat 2 - สินบนสะท้านโลก [2020].mkv - 6.4 GB
    Borat.Subsequent.Moviefilm.2020.1080p.AMZN.WEB-DL.DDP5.1.x264_SkiesIT.mkv - 6.4 GB

  2. The Following 3 Users Say Thank You to Duckload.us For This Useful Post:

    gaszolineskywalker (11-03-2020), ksurachai (10-24-2020), Wesker_TOT (10-25-2020)

  3. #2
    Senior Member รูปส่วนตัว ksurachai
    สมัครเมื่อ
    Nov 2019
    โพสต์
    224
    Thanks
    101
    Thanked 0 Times in 0 Posts
    ขอบคุณคร้าบบบ

  4. #3
    Senior Member
    สมัครเมื่อ
    Dec 2013
    โพสต์
    2,490
    Thanks
    4,415
    Thanked 0 Times in 0 Posts
    ขอบคุณนะครับ...

  5. #4
    Senior Member
    สมัครเมื่อ
    Jul 2013
    โพสต์
    1,402
    Thanks
    0
    Thanked 0 Times in 0 Posts
    ขอบคุณครับผม

  6. #5
    Senior Member
    สมัครเมื่อ
    Oct 2012
    โพสต์
    1,344
    Thanks
    2,272
    Thanked 0 Times in 0 Posts
    ขอบคุณครับ

+ ตอบกลับกระทู้

ข้อมูลกระทู้

Users Browsing this Thread

ในขณะนี้มี 1 ท่านดูกระทู้อยู่. (0 สมาชิกและ 1 ผู้เยี่ยมชม)

     

กฎการโพสต์ข้อความ

  • ท่าน ไม่สามารถ ตั้งกระทู้ใหม่ได้
  • ท่าน ไม่สามารถ ตอบกระทู้ได้
  • ท่าน ไม่สามารถ แนบไฟล์ได้
  • ท่าน ไม่สามารถ แก้ไขข้อความโพสต์ได้
  • BB code สถานะ เปิด
  • Smilies สถานะ เปิด
  • [IMG] สถานะ เปิด
  • HTML สถานะ ปิด