+ ตอบกลับกระทู้
สรุปผลการค้นหา 1 ถึง 2 จากทั้งหมด 2
  1. #1
    Administrators รูปส่วนตัว Duckload.us
    สมัครเมื่อ
    Dec 2010
    โพสต์
    120,637
    Thanks
    7
    Thanked 125,986 Times in 56,312 Posts

    Angry [ฝรั่ง]-[หนังใหม่ร้อนๆ] A Rainy Day in New York (2019) : วันฝนตกในนิวยอร์ค [ภาพยนตร์โดย Woody Allen]-Blu-ray.H.264.1080p. [Modified]-[พากย์ไทย-พากย์อังกฤษ-บรรยายอังกฤษ]





    แกตส์บี้ เวลส์ (ทิโมธี ชาลาเมต์) และ แอชลี เอนไรท์ (แอล แฟนนิง) คู่รักหนุ่มสาวต้องเดินทางเข้าไปในนิวยอร์ก หลังจากแอชลี่ได้มีนัดสัมภาษณ์กับผู้กำกับชื่อดังอย่ าง โรแลนด์ พอลลาร์ด พวกเขาได้พบเจอกับผู้คนและเรื่องราวต่างๆ มากมายท่ามกลางสภาพอากาศที่แย่ในวันที่ฝนตกนี้

    Format : Matroska
    Format version : Version 4 / Version 2
    File size : 3.40 GiB
    Duration : 1 h 32 min
    Overall bit rate : 5 271 kb/s
    Writing application : mkvmerge v48.0.0 ('Fortress Around Your Heart') 64-bit
    Writing library : libebml v1.4.0 + libmatroska v1.6.0

    Video
    ID : 1
    Format : AVC
    Format/Info : Advanced Video Codec
    Format profile : [email protected]
    Format settings, CABAC : Yes
    Format settings, ReFrames : 4 frames
    Codec ID : V_MPEG4/ISO/AVC
    Duration : 1 h 32 min
    Bit rate : 4 500 kb/s
    Width : 1 920 pixels
    Height : 960 pixels
    Display aspect ratio : 2.000
    Frame rate mode : Constant
    Frame rate : 23.976 (24000/1001) FPS
    Color space : YUV
    Chroma subsampling : 4:2:0
    Bit depth : 8 bits
    Scan type : Progressive
    Bits/(Pixel*Frame) : 0.102
    Default : Yes
    Forced : No
    Color range : Limited
    Color primaries : BT.709
    Transfer characteristics : BT.709
    Matrix coefficients : BT.709

    Audio #1
    ID : 2
    Format : AC-3
    Format/Info : Audio Coding 3
    Mode extension : CM (complete main)
    Format settings, Endianness : Big
    Codec ID : A_AC3
    Duration : 1 h 32 min
    Bit rate mode : Constant
    Bit rate : 448 kb/s
    Channel(s) : 2 channels
    Channel positions : Front: L R
    Sampling rate : 48.0 kHz
    Frame rate : 31.250 FPS (1536 spf)
    Compression mode : Lossy
    Delay relative to video : -5 ms
    Stream size : 296 MiB (9%)
    Language : Thai
    Default : Yes
    Forced : No

    Audio #2
    ID : 3
    Format : E-AC-3
    Format/Info : Audio Coding 3
    Format settings, Endianness : Big
    Codec ID : A_EAC3
    Duration : 1 h 32 min
    Bit rate mode : Constant
    Bit rate : 448 kb/s
    Channel(s) : 6 channels
    Channel positions : Front: L C R, Side: L R, LFE
    Sampling rate : 48.0 kHz
    Frame rate : 187.500 FPS (256 spf)
    Compression mode : Lossy
    Delay relative to video : -5 ms
    Stream size : 296 MiB (8%)
    Language : English
    Default : No
    Forced : No

    Text
    ID : 4
    Format : UTF-8
    Codec ID : S_TEXT/UTF8
    Codec ID/Info : UTF-8 Plain Text
    Duration : 1 h 29 min
    Bit rate : 96 b/s
    Count of elements : 1630
    Stream size : 63.3 KiB (0%)
    Language : English
    Default : Yes
    Forced : No









    http://cornfile.com/f6syokj7ts6y

  2. The Following 2 Users Say Thank You to Duckload.us For This Useful Post:

    Jodz14 (10-26-2020), noi54 (10-26-2020)

  3. #2
    Senior Member
    สมัครเมื่อ
    Jul 2013
    โพสต์
    1,402
    Thanks
    0
    Thanked 0 Times in 0 Posts
    ขอบคุณคร๊าบ

+ ตอบกลับกระทู้

ข้อมูลกระทู้

Users Browsing this Thread

ในขณะนี้มี 1 ท่านดูกระทู้อยู่. (0 สมาชิกและ 1 ผู้เยี่ยมชม)

     

กฎการโพสต์ข้อความ

  • ท่าน ไม่สามารถ ตั้งกระทู้ใหม่ได้
  • ท่าน ไม่สามารถ ตอบกระทู้ได้
  • ท่าน ไม่สามารถ แนบไฟล์ได้
  • ท่าน ไม่สามารถ แก้ไขข้อความโพสต์ได้
  • BB code สถานะ เปิด
  • Smilies สถานะ เปิด
  • [IMG] สถานะ เปิด
  • HTML สถานะ ปิด