+ ตอบกลับกระทู้
สรุปผลการค้นหา 1 ถึง 3 จากทั้งหมด 3
  1. #1
    Administrators รูปส่วนตัว Duckload.us
    สมัครเมื่อ
    Dec 2010
    โพสต์
    120,759
    Thanks
    7
    Thanked 126,214 Times in 56,377 Posts

    Thumbs up [ฝรั่ง]-Star.Trek.Discovery.[S03E01-06]-WEB-DL.H.264.1080p.[เสียง:อังกฤษ-ไทย AC-3 ][บรรยาย: ไทย PGS/SRT-อังกฤษ SRT Netflix] [From HD-TV]-[พากย์ไทย บรรยายไทย]




    ไมเคิลโผล่จากรูหนอนในอนาคตอันไกลโพ้นและได้พบผู้จัด ส่งลึกลับชื่อบุ๊ก ซึ่งมาเผยชะตากรรมในอดีตของสหพันธ์ให้ทราบ

    Video
    ID : 1
    Format : AVC
    Format/Info : Advanced Video Codec
    Format profile : [email protected]
    Format settings : CABAC / 3 Ref Frames
    Format settings, CABAC : Yes
    Format settings, Reference fra : 3 frames
    Codec ID : V_MPEG4/ISO/AVC
    Duration : 51 min 48 s
    Bit rate : 2 750 kb/s
    Width : 1 920 pixels
    Height : 1 080 pixels
    Display aspect ratio : 16:9
    Frame rate mode : Constant
    Frame rate : 23.976 (24000/1001) FPS
    Color space : YUV
    Chroma subsampling : 4:2:0
    Bit depth : 8 bits
    Scan type : Progressive
    Bits/(Pixel*Frame) : 0.055
    Stream size : 1 019 MiB (68%)
    Default : Yes
    Forced : No

    Audio #1
    ID : 2
    Format : E-AC-3
    Format/Info : Enhanced AC-3
    Commercial name : Dolby Digital Plus
    Codec ID : A_EAC3
    Duration : 51 min 49 s
    Bit rate mode : Constant
    Bit rate : 640 kb/s
    Channel(s) : 6 channels
    Channel layout : L R C LFE Ls Rs
    Sampling rate : 48.0 kHz
    Frame rate : 31.250 FPS (1536 SPF)
    Compression mode : Lossy
    Stream size : 237 MiB (16%)
    Title : [Thai-AC-3]
    Language : Thai
    Service kind : Complete Main
    Default : Yes
    Forced : No

    Audio #2
    ID : 3
    Format : E-AC-3
    Format/Info : Enhanced AC-3
    Commercial name : Dolby Digital Plus
    Codec ID : A_EAC3
    Duration : 51 min 49 s
    Bit rate mode : Constant
    Bit rate : 640 kb/s
    Channel(s) : 6 channels
    Channel layout : L R C LFE Ls Rs
    Sampling rate : 48.0 kHz
    Frame rate : 31.250 FPS (1536 SPF)
    Compression mode : Lossy
    Stream size : 237 MiB (16%)
    Title : [English-AC-3]
    Language : English
    Service kind : Complete Main
    Default : No
    Forced : No

    Text #1
    ID : 4
    Format : PGS
    Muxing mode : zlib
    Codec ID : S_HDMV/PGS
    Codec ID/Info : Picture based subtitle format used on BDs/HD-DVDs
    Duration : 51 min 11 s
    Bit rate : 772 b/s
    Count of elements : 50
    Stream size : 290 KiB (0%)
    Title : [Thai-Forced PGS Netflix]
    Language : Thai
    Default : Yes
    Forced : No

    Text #2
    ID : 5
    Format : PGS
    Muxing mode : zlib
    Codec ID : S_HDMV/PGS
    Codec ID/Info : Picture based subtitle format used on BDs/HD-DVDs
    Duration : 51 min 11 s
    Bit rate : 21.6 kb/s
    Count of elements : 1092
    Stream size : 7.90 MiB (1%)
    Title : [Thai PGS Netflix]
    Language : Thai
    Default : No
    Forced : No

    Text #3
    ID : 6
    Format : UTF-8
    Codec ID : S_TEXT/UTF8
    Codec ID/Info : UTF-8 Plain Text
    Duration : 50 min 6 s
    Bit rate : 51 b/s
    Count of elements : 604
    Stream size : 19.1 KiB (0%)
    Title : SRT
    Language : English
    Default : No
    Forced : No

    Text #4
    ID : 7
    Format : UTF-8
    Codec ID : S_TEXT/UTF8
    Codec ID/Info : UTF-8 Plain Text
    Duration : 34 min 17 s
    Bit rate : 1 b/s
    Count of elements : 16
    Stream size : 378 Bytes (0%)
    Title : SRT-Forced
    Language : English
    Default : No
    Forced : No

    Text #5
    ID : 8
    Format : UTF-8
    Codec ID : S_TEXT/UTF8
    Codec ID/Info : UTF-8 Plain Text
    Duration : 49 min 53 s
    Bit rate : 120 b/s
    Count of elements : 545
    Stream size : 44.2 KiB (0%)
    Title : SRT
    Language : Thai
    Default : No
    Forced : No

    Text #6
    ID : 9
    Format : UTF-8
    Codec ID : S_TEXT/UTF8
    Codec ID/Info : UTF-8 Plain Text
    Duration : 51 min 11 s
    Bit rate : 3 b/s
    Count of elements : 25
    Stream size : 1.46 KiB (0%)
    Title : SRT-Forced
    Language : Thai
    Default : No
    Forced : No






    1
    http://www.filecondo.com/dl.php?f=4253e91Ku5pi
    2
    http://www.filecondo.com/dl.php?f=A320ef1KwgZd
    3
    http://www.filecondo.com/dl.php?f=y0bf7f1KzcXR
    4
    http://www.filecondo.com/dl.php?f=of05061KBY3j
    5
    http://www.filecondo.com/dl.php?f=qb95bb1KDToI
    6
    http://www.filecondo.com/dl.php?f=o957f71KGrik

    Star.Trek.Discovery.S03E01.ความหวังนั้นคือคุณ ตอน 1.1080p.mkv - 1.5 GB
    Star.Trek.Discovery.S03E02.ไกลบ้าน.1080p.mkv - 1.5 GB
    Star.Trek.Discovery.S03E03.ชาวโลก.1080p.mkv - 1.1 GB
    Star.Trek.Discovery.S03E04.อย่าลืมฉัน.1080p.mkv - 1.3 GB
    Star.Trek.Discovery.S03E05.สู้ไม่ถอย.1080p.mkv - 1401691856
    Star.Trek.Discovery.S03E06.นักกู้ซาก.1080p.mkv - 1318068260

  2. The Following 2 Users Say Thank You to Duckload.us For This Useful Post:

    neorun (10-25-2020), Wesker_TOT (11-10-2020)

  3. #2
    Senior Member
    สมัครเมื่อ
    Dec 2013
    โพสต์
    2,497
    Thanks
    4,421
    Thanked 0 Times in 0 Posts
    ขอบคุณครับ...

  4. #3
    Senior Member
    สมัครเมื่อ
    Jul 2013
    โพสต์
    1,416
    Thanks
    0
    Thanked 0 Times in 0 Posts
    ขอบคุรครับ

+ ตอบกลับกระทู้

ข้อมูลกระทู้

Users Browsing this Thread

ในขณะนี้มี 1 ท่านดูกระทู้อยู่. (0 สมาชิกและ 1 ผู้เยี่ยมชม)

     

กฎการโพสต์ข้อความ

  • ท่าน ไม่สามารถ ตั้งกระทู้ใหม่ได้
  • ท่าน ไม่สามารถ ตอบกระทู้ได้
  • ท่าน ไม่สามารถ แนบไฟล์ได้
  • ท่าน ไม่สามารถ แก้ไขข้อความโพสต์ได้
  • BB code สถานะ เปิด
  • Smilies สถานะ เปิด
  • [IMG] สถานะ เปิด
  • HTML สถานะ ปิด