+ ตอบกลับกระทู้
สรุปผลการค้นหา 1 ถึง 2 จากทั้งหมด 2
  1. #1
    Administrators รูปส่วนตัว Duckload.us
    สมัครเมื่อ
    Dec 2010
    โพสต์
    120,637
    Thanks
    7
    Thanked 125,986 Times in 56,312 Posts

    Thumbs up [เยอรมัน]-[* ใหม่!! NETFLIX *] Barbarians (2020) : ศึกบาร์เบเรียน | Season 1 [เสียงเยอรมัน 5.1] [บรรยายไทย + อังกฤษ] [ซับไทย Master From Netflix + ซับ SRT , PGS]-WEB-DL.H.264.1080p. [Hi-def rip from Master]-[Soundtrack บรรยายไทย]



    ชะตากรรมของคน 3 คนต้องโคจรมาบรรจบพบกัน ในศึกสงครามการต่อสู้แห่งป่าทอยโทบวร์กเมื่อปี ค.ศ. 9 ซึ่งถือเป็นช่วงที่วีรบุรุษนักรบเยอรมันได้หยุดยั้งก ารขยายอำนาจของจักรวรรดิโรมัน

    ทหารกล้าแห่งโรมันต้องตัดสินใจเลือกระหว่างแผ่นดินที ่โอบอุ้มเลี้ยงดูเขามากับผู้คนในเผ่าพันธุ์ของเขาเอง ความจงรักภักดีที่สั่นคลอนจะนำไปสู่สงครามครั้งยิ่งใ หญ่ในประวัติศาสตร์


    Format : Matroska
    Format version : Version 4
    File size : 1.65 GiB
    Duration : 49 min 10 s
    Overall bit rate mode : Variable
    Overall bit rate : 4 803 kb/s
    Movie name : Barbarians.2020.S01E06.The.Battle.1080p.NF.WEB-DL.DDP5.1.x264_SkiesIT
    Encoded date : UTC 2020-10-23 09:44:26
    Writing application : mkvmerge v49.0.0 ('Sick Of Losing Soulmates') 64-bit
    Writing library : libebml v1.4.0 + libmatroska v1.6.1

    Video
    ID : 1
    Format : AVC
    Format/Info : Advanced Video Codec
    Format profile : [email protected]
    Format settings : CABAC / 3 Ref Frames
    Format settings, CABAC : Yes
    Format settings, Reference frames : 3 frames
    Codec ID : V_MPEG4/ISO/AVC
    Duration : 49 min 10 s
    Bit rate mode : Variable
    Bit rate : 4 124 kb/s
    Nominal bit rate : 4 420 kb/s
    Maximum bit rate : 6 630 kb/s
    Width : 1 920 pixels
    Height : 1 080 pixels
    Display aspect ratio : 16:9
    Frame rate mode : Constant
    Frame rate : 24.000 FPS
    Color space : YUV
    Chroma subsampling : 4:2:0
    Bit depth : 8 bits
    Scan type : Progressive
    Bits/(Pixel*Frame) : 0.083
    Stream size : 1.42 GiB (86%)
    Title : Barbarians.2020.S01E06.The.Battle.1080p.NF.WEB-DL.DDP5.1.x264_SkiesIT
    Writing library : x264 core 148 r2722 1b0121b
    Encoding settings : cabac=1 / ref=3 / deblock=1:0:0 / analyse=0x1:0x111 / me=umh / subme=10 / psy=1 / psy_rd=1.00:0.00 / mixed_ref=1 / me_range=24 / chroma_me=1 / trellis=2 / 8x8dct=0 / cqm=0 / deadzone=21,11 / fast_pskip=1 / chroma_qp_offset=-2 / threads=6 / lookahead_threads=1 / sliced_threads=0 / nr=0 / decimate=1 / interlaced=0 / bluray_compat=0 / stitchable=1 / constrained_intra=0 / bframes=2 / b_pyramid=0 / b_adapt=2 / b_bias=0 / direct=3 / weightb=1 / open_gop=0 / weightp=2 / keyint=250 / keyint_min=24 / scenecut=0 / intra_refresh=0 / rc_lookahead=48 / rc=2pass / mbtree=1 / bitrate=4420 / ratetol=1.0 / qcomp=0.50 / qpmin=6 / qpmax=51 / qpstep=4 / cplxblur=20.0 / qblur=0.5 / vbv_maxrate=6630 / vbv_bufsize=8840 / nal_hrd=vbr / filler=0 / ip_ratio=1.40 / aq=1:1.00
    Default : Yes
    Forced : No

    Audio
    ID : 2
    Format : E-AC-3
    Format/Info : Enhanced AC-3
    Commercial name : Dolby Digital Plus
    Codec ID : A_EAC3
    Duration : 49 min 10 s
    Bit rate mode : Constant
    Bit rate : 640 kb/s
    Channel(s) : 6 channels
    Channel layout : L R C LFE Ls Rs
    Sampling rate : 48.0 kHz
    Frame rate : 31.250 FPS (1536 SPF)
    Compression mode : Lossy
    Stream size : 225 MiB (13%)
    Language : German
    Service kind : Complete Main
    Default : Yes
    Forced : No

    Text #1
    ID : 3
    Format : UTF-8
    Codec ID : S_TEXT/UTF8
    Codec ID/Info : UTF-8 Plain Text
    Duration : 48 min 20 s
    Bit rate : 56 b/s
    Count of elements : 270
    Stream size : 20.2 KiB (0%)
    Title : Thai SRT From Netflix
    Language : Thai
    Default : Yes
    Forced : No

    Text #2
    ID : 4
    Format : UTF-8
    Codec ID : S_TEXT/UTF8
    Codec ID/Info : UTF-8 Plain Text
    Duration : 43 min 39 s
    Bit rate : 31 b/s
    Count of elements : 372
    Stream size : 10.2 KiB (0%)
    Title : English SRT
    Language : English
    Default : No
    Forced : No

    Text #3
    ID : 5
    Format : PGS
    Muxing mode : zlib
    Codec ID : S_HDMV/PGS
    Codec ID/Info : Picture based subtitle format used on BDs/HD-DVDs
    Duration : 48 min 20 s
    Bit rate : 17.1 kb/s
    Count of elements : 540
    Stream size : 5.90 MiB (0%)
    Title : Thai PGS [Angsana]
    Language : Thai
    Default : No
    Forced : No

    Text #4
    ID : 6
    Format : PGS
    Muxing mode : zlib
    Codec ID : S_HDMV/PGS
    Codec ID/Info : Picture based subtitle format used on BDs/HD-DVDs
    Duration : 48 min 20 s
    Bit rate : 17.1 kb/s
    Count of elements : 540
    Stream size : 5.90 MiB (0%)
    Title : Thai PGS [Angsana Yellow]
    Language : Thai
    Default : No
    Forced : No

    Text #5
    ID : 7
    Format : PGS
    Muxing mode : zlib
    Codec ID : S_HDMV/PGS
    Codec ID/Info : Picture based subtitle format used on BDs/HD-DVDs
    Duration : 48 min 20 s
    Bit rate : 16.9 kb/s
    Count of elements : 540
    Stream size : 5.83 MiB (0%)
    Title : Thai PGS [Sarabun]
    Language : Thai
    Default : No
    Forced : No

    Text #6
    ID : 8
    Format : PGS
    Muxing mode : zlib
    Codec ID : S_HDMV/PGS
    Codec ID/Info : Picture based subtitle format used on BDs/HD-DVDs
    Duration : 48 min 20 s
    Bit rate : 16.9 kb/s
    Count of elements : 540
    Stream size : 5.83 MiB (0%)
    Title : Thai PGS [Sarabun Yellow]
    Language : Thai
    Default : No
    Forced : No

    Text #7
    ID : 9
    Format : PGS
    Muxing mode : zlib
    Codec ID : S_HDMV/PGS
    Codec ID/Info : Picture based subtitle format used on BDs/HD-DVDs
    Duration : 43 min 39 s
    Bit rate : 20.0 kb/s
    Count of elements : 744
    Stream size : 6.24 MiB (0%)
    Title : English PGS
    Language : English
    Default : No
    Forced : No

    Menu
    00:04:26.020 : en:Intro start
    00:04:37.687 : en:Intro end
    00:44:10.000 : en:Credits












    Download: filecondo
    1 http://www.filecondo.com/dl.php?f=t298ec1Kwglp
    2 http://www.filecondo.com/dl.php?f=m494711Kwgnk
    3 http://www.filecondo.com/dl.php?f=leaa901Kwgof
    4 http://www.filecondo.com/dl.php?f=x2a0df1Kwgpf
    5 http://www.filecondo.com/dl.php?f=C5c4d51Kwgqd
    6 http://www.filecondo.com/dl.php?f=744d411Kwgsg

    Download: cornfile
    Barbarians.2020.S01E01.Wolf.and.Eagle.1080p.NF.WEB-DL.DDP5.1.x264_SkiesIT.mkv - 1.3 GB
    Barbarians.2020.S01E02.Vengeance.1080p.NF.WEB-DL.DDP5.1.x264_SkiesIT.mkv - 1.3 GB
    Barbarians.2020.S01E03.On.the.Edge.1080p.NF.WEB-DL.DDP5.1.x264_SkiesIT.mkv - 1.1 GB
    Barbarians.2020.S01E04.A.New.Reik.1080p.NF.WEB-DL.DDP5.1.x264_SkiesIT.mkv - 1.3 GB
    Barbarians.2020.S01E05.Treason.1080p.NF.WEB-DL.DDP5.1.x264_SkiesIT.mkv - 1.3 GB
    Barbarians.2020.S01E06.The.Battle.1080p.NF.WEB-DL.DDP5.1.x264_SkiesIT.mkv - 1.6 GB

  2. The Following 2 Users Say Thank You to Duckload.us For This Useful Post:

    thatsna4555555 (11-01-2020), Wesker_TOT (10-25-2020)

  3. #2
    Senior Member
    สมัครเมื่อ
    Dec 2013
    โพสต์
    2,490
    Thanks
    4,415
    Thanked 0 Times in 0 Posts
    ขอบคุณครับ...

+ ตอบกลับกระทู้

ข้อมูลกระทู้

Users Browsing this Thread

ในขณะนี้มี 1 ท่านดูกระทู้อยู่. (0 สมาชิกและ 1 ผู้เยี่ยมชม)

     

กฎการโพสต์ข้อความ

  • ท่าน ไม่สามารถ ตั้งกระทู้ใหม่ได้
  • ท่าน ไม่สามารถ ตอบกระทู้ได้
  • ท่าน ไม่สามารถ แนบไฟล์ได้
  • ท่าน ไม่สามารถ แก้ไขข้อความโพสต์ได้
  • BB code สถานะ เปิด
  • Smilies สถานะ เปิด
  • [IMG] สถานะ เปิด
  • HTML สถานะ ปิด