+ ตอบกลับกระทู้
สรุปผลการค้นหา 1 ถึง 5 จากทั้งหมด 5
  1. #1
    Administrators รูปส่วนตัว Duckload.us
    สมัครเมื่อ
    Dec 2010
    โพสต์
    120,883
    Thanks
    7
    Thanked 126,371 Times in 56,432 Posts

    Angry [ฝรั่ง]-[* ใหม่!! NETFLIX *] Over the Moon (2020) : เนรมิตฝันสู่จันทรา [เสียงไทย 5.1 + เสียงอังกฤษ 5.1 Atmos] [บรรยายไทย + อังกฤษ] [เสียง + ซับไทย Master From Netflix + ซับ SRT , PGS]-WEB-DL.H.264.1080p.



    Over The Moon (เนรมิตฝันสู่จันทรา) ภาพยนตร์ออริจินัลอนิเมชั่นมิวสิคัลของ Netflix เรื่องราวที่ถ่ายทอดตำนานเทพธิดาแห่งดวงจันทร์ของเอเ ชีย สู่ผลงานอนิเมชั่นระดับอินเตอร์ ให้ทั่วโลกได้ประทับใจ ผ่านการผจญภัยของ เฟย เฟย เด็กหญิงแสนเฉลียวฉลาดที่เปี่ยมไปด้วยความมุ่งมั่นแล ะใจรักวิทยาศาสตร์ เธอสร้างยานอวกาศขึ้นไปยังดวงจันทร์เพื่อพิสูจน์ว่าเ ทพธิดาแห่งดวงจันทร์ในตำนานนั้นมีจริง เธอได้มีประสบการณ์กับภารกิจที่ไม่คาดคิด ได้เจอคนพิเศษที่ไม่คาดฝัน และค้นพบดินแดนแสนมหัศจรรย์เหนือจินตนาการ

    Over the moon เป็นหนังอนิเมชั่่นร่วมทุนสร้างระหว่างสหรัฐอเมริกาแ ละจีน จึงเห็นกลิ่นอาย ฉาก และตัวละครที่เป็นชาวจีนทั้งสิ้น โดยเป็นเรื่องราวของ เฟย เฟย สาวน้อยวัย 12 ปี ที่แม่ของเธอเล่าตำนานเทพเจ้าบนดวงจันทร์ของชาวจีนที ่มีชื่อว่า ฉางเอ๋อ สาวงามที่ต้องคำสาปและต้องล่องลอยไปอยู่บนดวงจันทร์ช ั่วนิรันดร์เพื่อรอคอยชายที่เธอรัก

    เฟย เฟย จึงฝันว่าสักวันหนึ่ง เธอจะต้องขึ้นไปเหยียบบนดวงจันทร์เพื่อพิสูจน์​ ว่าบนนั้นมีเทพเจ้า ฉางเอ๋อ ที่ชาวจีนเชื่อกันว่าอาศัยอยู่จริงหรือไม่ จุดเด่นของหนังอนิเมชั่นเรื่องนี้จึงเป็นวิธีการที่เ ฟย เฟย ไม่เคยล้มเลิกความตั้งใจต่อความฝันนี้ และพยายามอย่างหนักที่จะค้นวิธีการที่จะไปเยือนบนดวง จันทร์ ซึ่งหากเป็นชีวิตจริงถือเป็นเรื่องที่น่าชื่นชมยิ่งท ี่เด็กผู้หญิงวัยเพียง 13 ปี ค้นคว้าหาข้อมูลอย่างหนักเพื่อประดิษฐ์ยานอวกาศ เพื่อพาเธอขึ้นไปยังดวงจันทร์ให้ได้


    Format : Matroska
    Format version : Version 4
    File size : 4.79 GiB
    Duration : 1 h 40 min
    Overall bit rate mode : Variable
    Overall bit rate : 6 835 kb/s
    Movie name : Over.the.Moon.2020.1080p.NF.WEB-DL.DDP5.1.Atmos.x264_SkiesIT
    Encoded date : UTC 2020-10-23 15:23:26
    Writing application : mkvmerge v49.0.0 ('Sick Of Losing Soulmates') 64-bit
    Writing library : libebml v1.4.0 + libmatroska v1.6.1

    Video
    ID : 1
    Format : AVC
    Format/Info : Advanced Video Codec
    Format profile : [email protected]
    Format settings : CABAC / 3 Ref Frames
    Format settings, CABAC : Yes
    Format settings, Reference frames : 3 frames
    Codec ID : V_MPEG4/ISO/AVC
    Duration : 1 h 40 min
    Bit rate mode : Variable
    Bit rate : 5 620 kb/s
    Maximum bit rate : 8 430 kb/s
    Width : 1 920 pixels
    Height : 1 080 pixels
    Display aspect ratio : 16:9
    Frame rate mode : Constant
    Frame rate : 24.000 FPS
    Color space : YUV
    Chroma subsampling : 4:2:0
    Bit depth : 8 bits
    Scan type : Progressive
    Bits/(Pixel*Frame) : 0.113
    Stream size : 3.75 GiB (78%)
    Title : Over.the.Moon.2020.1080p.NF.WEB-DL.DDP5.1.Atmos.x264_SkiesIT
    Writing library : x264 core 148 r2722 1b0121b
    Encoding settings : cabac=1 / ref=3 / deblock=1:0:0 / analyse=0x1:0x111 / me=umh / subme=10 / psy=1 / psy_rd=1.00:0.00 / mixed_ref=1 / me_range=24 / chroma_me=1 / trellis=2 / 8x8dct=0 / cqm=0 / deadzone=21,11 / fast_pskip=1 / chroma_qp_offset=-2 / threads=6 / lookahead_threads=1 / sliced_threads=0 / nr=0 / decimate=1 / interlaced=0 / bluray_compat=0 / stitchable=1 / constrained_intra=0 / bframes=2 / b_pyramid=0 / b_adapt=2 / b_bias=0 / direct=3 / weightb=1 / open_gop=0 / weightp=2 / keyint=250 / keyint_min=24 / scenecut=0 / intra_refresh=0 / rc_lookahead=48 / rc=2pass / mbtree=1 / bitrate=5620 / ratetol=1.0 / qcomp=0.50 / qpmin=6 / qpmax=51 / qpstep=4 / cplxblur=20.0 / qblur=0.5 / vbv_maxrate=8430 / vbv_bufsize=11240 / nal_hrd=vbr / filler=0 / ip_ratio=1.40 / aq=1:1.00
    Language : English
    Default : Yes
    Forced : No

    Audio #1
    ID : 2
    Format : E-AC-3 JOC
    Format/Info : Enhanced AC-3 with Joint Object Coding
    Commercial name : Dolby Digital Plus with Dolby Atmos
    Codec ID : A_EAC3
    Duration : 1 h 40 min
    Bit rate mode : Constant
    Bit rate : 768 kb/s
    Channel(s) : 6 channels
    Channel layout : L R C LFE Ls Rs
    Sampling rate : 48.0 kHz
    Frame rate : 31.250 FPS (1536 SPF)
    Compression mode : Lossy
    Stream size : 551 MiB (11%)
    Title : English
    Language : English
    Service kind : Complete Main
    Default : No
    Forced : No
    Complexity index : 16
    Number of dynamic objects : 15
    Bed channel count : 1 channel
    Bed channel configuration : LFE

    Audio #2
    ID : 3
    Format : E-AC-3
    Format/Info : Enhanced AC-3
    Commercial name : Dolby Digital Plus
    Codec ID : A_EAC3
    Duration : 1 h 40 min
    Bit rate mode : Constant
    Bit rate : 640 kb/s
    Channel(s) : 6 channels
    Channel layout : L R C LFE Ls Rs
    Sampling rate : 48.0 kHz
    Frame rate : 31.250 FPS (1536 SPF)
    Compression mode : Lossy
    Stream size : 459 MiB (9%)
    Title : Thai
    Language : Thai
    Service kind : Complete Main
    Default : Yes
    Forced : No

    Text #1
    ID : 4
    Format : UTF-8
    Codec ID : S_TEXT/UTF8
    Codec ID/Info : UTF-8 Plain Text
    Duration : 1 h 34 min
    Bit rate : 107 b/s
    Count of elements : 1083
    Stream size : 74.6 KiB (0%)
    Title : Thai SRT From Netflix
    Language : Thai
    Default : Yes
    Forced : No

    Text #2
    ID : 5
    Format : UTF-8
    Codec ID : S_TEXT/UTF8
    Codec ID/Info : UTF-8 Plain Text
    Duration : 1 h 34 min
    Bit rate : 0 b/s
    Count of elements : 5
    Stream size : 328 Bytes (0%)
    Title : Thai SRT From Netflix Forced
    Language : Thai
    Default : No
    Forced : No

    Text #3
    ID : 6
    Format : UTF-8
    Codec ID : S_TEXT/UTF8
    Codec ID/Info : UTF-8 Plain Text
    Duration : 1 h 29 min
    Bit rate : 67 b/s
    Count of elements : 1352
    Stream size : 44.2 KiB (0%)
    Title : English SRT
    Language : English
    Default : No
    Forced : No

    Text #4
    ID : 7
    Format : PGS
    Muxing mode : zlib
    Codec ID : S_HDMV/PGS
    Codec ID/Info : Picture based subtitle format used on BDs/HD-DVDs
    Duration : 1 h 34 min
    Bit rate : 32.7 kb/s
    Count of elements : 2166
    Stream size : 22.2 MiB (0%)
    Title : Thai PGS [Angsana]
    Language : Thai
    Default : No
    Forced : No

    Text #5
    ID : 8
    Format : PGS
    Muxing mode : zlib
    Codec ID : S_HDMV/PGS
    Codec ID/Info : Picture based subtitle format used on BDs/HD-DVDs
    Duration : 1 h 34 min
    Bit rate : 32.7 kb/s
    Count of elements : 2166
    Stream size : 22.2 MiB (0%)
    Title : Thai PGS [Angsana Yellow]
    Language : Thai
    Default : No
    Forced : No

    Text #6
    ID : 9
    Format : PGS
    Muxing mode : zlib
    Codec ID : S_HDMV/PGS
    Codec ID/Info : Picture based subtitle format used on BDs/HD-DVDs
    Duration : 1 h 34 min
    Bit rate : 32.2 kb/s
    Count of elements : 2166
    Stream size : 21.8 MiB (0%)
    Title : Thai PGS [Sarabun]
    Language : Thai
    Default : No
    Forced : No

    Text #7
    ID : 10
    Format : PGS
    Muxing mode : zlib
    Codec ID : S_HDMV/PGS
    Codec ID/Info : Picture based subtitle format used on BDs/HD-DVDs
    Duration : 1 h 34 min
    Bit rate : 32.2 kb/s
    Count of elements : 2166
    Stream size : 21.8 MiB (0%)
    Title : Thai PGS [Sarabun Yellow]
    Language : Thai
    Default : No
    Forced : No

    Text #8
    ID : 11
    Format : PGS
    Muxing mode : zlib
    Codec ID : S_HDMV/PGS
    Codec ID/Info : Picture based subtitle format used on BDs/HD-DVDs
    Duration : 1 h 29 min
    Bit rate : 38.2 kb/s
    Count of elements : 2704
    Stream size : 24.6 MiB (1%)
    Title : English PGS
    Language : English
    Default : No
    Forced : No










    Over the Moon (2020).mkv - 5.2 GB
    Over.the.Moon.2020.1080p.NF.WEB-DL.DDP5.1.Atmos.x264_SkiesIT.mkv - 4.8 GB
    OVER THE MOON (2020) - เนรมิตฝันสู่จันทรา WEB-DL 1080P @HENRYKAI - เสียงไทย DTS.mkv - 5.8 GB
    Over.the.Moon.2020.1080p.10bit.NF.WEBRip..x265.HEV C .mkv - 2.2 GB

  2. The Following 4 Users Say Thank You to Duckload.us For This Useful Post:

    gaszolineskywalker (11-02-2020), Jodz14 (10-26-2020), Tatum03 (10-26-2020), Wesker_TOT (10-26-2020)

  3. #2
    Senior Member
    สมัครเมื่อ
    Jul 2013
    โพสต์
    1,425
    Thanks
    0
    Thanked 0 Times in 0 Posts
    ขอบคุณค๊าบ

  4. #3
    Senior Member
    สมัครเมื่อ
    Dec 2013
    โพสต์
    2,503
    Thanks
    4,427
    Thanked 0 Times in 0 Posts
    ขอบคุณนะครับ...

  5. #4
    Senior Member
    สมัครเมื่อ
    Oct 2013
    ที่อยู่
    Thailand
    โพสต์
    1,403
    Thanks
    1,271
    Thanked 0 Times in 0 Posts
    ขอบคุณมาก

  6. #5
    Senior Member
    สมัครเมื่อ
    Oct 2012
    โพสต์
    1,379
    Thanks
    2,309
    Thanked 0 Times in 0 Posts
    ขอบคุณครับ

+ ตอบกลับกระทู้

ข้อมูลกระทู้

Users Browsing this Thread

ในขณะนี้มี 1 ท่านดูกระทู้อยู่. (0 สมาชิกและ 1 ผู้เยี่ยมชม)

     

กฎการโพสต์ข้อความ

  • ท่าน ไม่สามารถ ตั้งกระทู้ใหม่ได้
  • ท่าน ไม่สามารถ ตอบกระทู้ได้
  • ท่าน ไม่สามารถ แนบไฟล์ได้
  • ท่าน ไม่สามารถ แก้ไขข้อความโพสต์ได้
  • BB code สถานะ เปิด
  • Smilies สถานะ เปิด
  • [IMG] สถานะ เปิด
  • HTML สถานะ ปิด