+ ตอบกลับกระทู้
สรุปผลการค้นหา 1 ถึง 4 จากทั้งหมด 4
  1. #1
    Administrators รูปส่วนตัว Duckload.us
    สมัครเมื่อ
    Dec 2010
    โพสต์
    120,852
    Thanks
    7
    Thanked 126,277 Times in 56,397 Posts

    Thumbs up [ฝรั่ง]-[* ใหม่!! NETFLIX *] Blood of Zeus (2020) : มหาศึกโลหิตเทพ | Season 1 [เสียงไทย 5.1 + เสียงอังกฤษ 5.1] [บรรยายไทย + อังกฤษ] [เสียง + ซับไทย Master From Netflix + ซับ SRT , PGS]-WEB-DL.H.264.1080p. [rip from Master]-[พากย์ไทย บรรยายไทย]






    ท่ามกลางสงครามที่กำลังก่อตัวระหว่างเหล่าทวยเทพแห่ง โอลิมปัสและไททัน เฮรอน ชายหนุ่มธรรมดาที่ใช้ชีวิตอยู่บริเวณชายชอบของอาณาจั กรกรีกโบราณกลายเป็นความหวังครั้งสำคัญที่จะต่อสู้กอ งทัพปีศาจเพื่อความอยู่รอดของมนุษยชาติ หลังความลับจากอดีตของตัวเขาเองเปิดเผย

    Format : Matroska
    Format version : Version 4
    File size : 1.83 GiB
    Duration : 37 min 50 s
    Overall bit rate mode : Variable
    Overall bit rate : 6 934 kb/s
    Movie name : Blood.of.Zeus.S01E08.War.for.Olympus.1080p.NF.WEB-DL.DDP5.1.x264_SkiesIT
    Encoded date : UTC 2020-10-27 09:17:31
    Writing application : mkvmerge v49.0.0 ('Sick Of Losing Soulmates') 64-bit
    Writing library : libebml v1.4.0 + libmatroska v1.6.1

    Video
    ID : 1
    Format : AVC
    Format/Info : Advanced Video Codec
    Format profile : [email protected]
    Format settings : CABAC / 3 Ref Frames
    Format settings, CABAC : Yes
    Format settings, Reference frames : 3 frames
    Codec ID : V_MPEG4/ISO/AVC
    Duration : 37 min 50 s
    Bit rate mode : Variable
    Bit rate : 5 800 kb/s
    Maximum bit rate : 8 700 kb/s
    Width : 1 920 pixels
    Height : 1 080 pixels
    Display aspect ratio : 16:9
    Frame rate mode : Constant
    Frame rate : 24.000 FPS
    Color space : YUV
    Chroma subsampling : 4:2:0
    Bit depth : 8 bits
    Scan type : Progressive
    Bits/(Pixel*Frame) : 0.117
    Stream size : 1.49 GiB (81%)
    Title : Blood.of.Zeus.S01E08.War.for.Olympus.1080p.NF.WEB-DL.DDP5.1.x264_SkiesIT
    Writing library : x264 core 148 r2722 1b0121b
    Encoding settings : cabac=1 / ref=3 / deblock=1:0:0 / analyse=0x1:0x111 / me=umh / subme=10 / psy=1 / psy_rd=1.00:0.00 / mixed_ref=1 / me_range=24 / chroma_me=1 / trellis=2 / 8x8dct=0 / cqm=0 / deadzone=21,11 / fast_pskip=1 / chroma_qp_offset=-2 / threads=8 / lookahead_threads=1 / sliced_threads=0 / nr=0 / decimate=1 / interlaced=0 / bluray_compat=0 / stitchable=1 / constrained_intra=0 / bframes=2 / b_pyramid=0 / b_adapt=2 / b_bias=0 / direct=3 / weightb=1 / open_gop=0 / weightp=2 / keyint=250 / keyint_min=24 / scenecut=0 / intra_refresh=0 / rc_lookahead=48 / rc=2pass / mbtree=1 / bitrate=5800 / ratetol=1.0 / qcomp=0.50 / qpmin=6 / qpmax=51 / qpstep=4 / cplxblur=20.0 / qblur=0.5 / vbv_maxrate=8700 / vbv_bufsize=11600 / nal_hrd=vbr / filler=0 / ip_ratio=1.40 / aq=1:1.00
    Language : English
    Default : Yes
    Forced : No

    Audio #1
    ID : 2
    Format : E-AC-3
    Format/Info : Enhanced AC-3
    Commercial name : Dolby Digital Plus
    Codec ID : A_EAC3
    Duration : 37 min 50 s
    Bit rate mode : Constant
    Bit rate : 640 kb/s
    Channel(s) : 6 channels
    Channel layout : L R C LFE Ls Rs
    Sampling rate : 48.0 kHz
    Frame rate : 31.250 FPS (1536 SPF)
    Compression mode : Lossy
    Stream size : 173 MiB (9%)
    Title : English
    Language : English
    Service kind : Complete Main
    Default : No
    Forced : No

    Audio #2
    ID : 3
    Format : E-AC-3
    Format/Info : Enhanced AC-3
    Commercial name : Dolby Digital Plus
    Codec ID : A_EAC3
    Duration : 37 min 50 s
    Bit rate mode : Constant
    Bit rate : 640 kb/s
    Channel(s) : 6 channels
    Channel layout : L R C LFE Ls Rs
    Sampling rate : 48.0 kHz
    Frame rate : 31.250 FPS (1536 SPF)
    Compression mode : Lossy
    Stream size : 173 MiB (9%)
    Title : Thai
    Language : Thai
    Service kind : Complete Main
    Default : Yes
    Forced : No

    Text #1
    ID : 4
    Format : UTF-8
    Codec ID : S_TEXT/UTF8
    Codec ID/Info : UTF-8 Plain Text
    Duration : 36 min 4 s
    Bit rate : 31 b/s
    Count of elements : 115
    Stream size : 8.26 KiB (0%)
    Title : Thai SRT From Netflix
    Language : Thai
    Default : Yes
    Forced : No

    Text #2
    ID : 5
    Format : UTF-8
    Codec ID : S_TEXT/UTF8
    Codec ID/Info : UTF-8 Plain Text
    Duration : 34 min 1 s
    Bit rate : 25 b/s
    Count of elements : 326
    Stream size : 6.26 KiB (0%)
    Title : English SRT
    Language : English
    Default : No
    Forced : No

    Text #3
    ID : 6
    Format : PGS
    Muxing mode : zlib
    Codec ID : S_HDMV/PGS
    Codec ID/Info : Picture based subtitle format used on BDs/HD-DVDs
    Duration : 36 min 4 s
    Bit rate : 9 273 b/s
    Count of elements : 230
    Stream size : 2.39 MiB (0%)
    Title : Thai PGS [Angsana]
    Language : Thai
    Default : No
    Forced : No

    Text #4
    ID : 7
    Format : PGS
    Muxing mode : zlib
    Codec ID : S_HDMV/PGS
    Codec ID/Info : Picture based subtitle format used on BDs/HD-DVDs
    Duration : 36 min 4 s
    Bit rate : 9 273 b/s
    Count of elements : 230
    Stream size : 2.39 MiB (0%)
    Title : Thai PGS [Angsana Yellow]
    Language : Thai
    Default : No
    Forced : No

    Text #5
    ID : 8
    Format : PGS
    Muxing mode : zlib
    Codec ID : S_HDMV/PGS
    Codec ID/Info : Picture based subtitle format used on BDs/HD-DVDs
    Duration : 36 min 4 s
    Bit rate : 9 120 b/s
    Count of elements : 230
    Stream size : 2.35 MiB (0%)
    Title : Thai PGS [Sarabun]
    Language : Thai
    Default : No
    Forced : No

    Text #6
    ID : 9
    Format : PGS
    Muxing mode : zlib
    Codec ID : S_HDMV/PGS
    Codec ID/Info : Picture based subtitle format used on BDs/HD-DVDs
    Duration : 36 min 4 s
    Bit rate : 9 120 b/s
    Count of elements : 230
    Stream size : 2.35 MiB (0%)
    Title : Thai PGS [Sarabun Yellow]
    Language : Thai
    Default : No
    Forced : No

    Text #7
    ID : 10
    Format : PGS
    Muxing mode : zlib
    Codec ID : S_HDMV/PGS
    Codec ID/Info : Picture based subtitle format used on BDs/HD-DVDs
    Duration : 34 min 1 s
    Bit rate : 16.2 kb/s
    Count of elements : 652
    Stream size : 3.95 MiB (0%)
    Title : English PGS
    Language : English
    Default : No
    Forced : No










    Download: filecondo
    Blood.of.Zeus.S01E01.a.Call.to.Arms.1080p.NF.WEB-DL.DDP5.1.x264_SkiesIT.mkv - 990.5 MB
    Blood.of.Zeus.S01E02.Past.Is.Prologue.1080p.NF.WEB-DL.DDP5.1.x264_SkiesIT.mkv - 1.1 GB
    Blood.of.Zeus.S01E03.the.Raid.1080p.NF.WEB-DL.DDP5.1.x264_SkiesIT.mkv - 1.3 GB
    Blood.of.Zeus.S01E04.a.Monster.Is.Born.1080p.NF.WE B-DL.DDP5.1.x264_SkiesIT.mkv - 1.5 GB
    Blood.of.Zeus.S01E05.Escape.or.Die.1080p.NF.WEB-DL.DDP5.1.x264_SkiesIT.mkv - 1.2 GB
    Blood.of.Zeus.S01E06.Back.to.Olympus.1080p.NF.WEB-DL.DDP5.1.x264_SkiesIT.mkv - 1.6 GB
    Blood.of.Zeus.S01E07.the.Fields.of.the.Dead.1080p. NF.WEB-DL.DDP5.1.x264_SkiesIT.mkv - 1.7 GB
    Blood.of.Zeus.S01E08.War.for.Olympus.1080p.NF.WEB-DL.DDP5.1.x264_SkiesIT.mkv - 1.8 GB

    Download: cornfile
    Blood.of.Zeus.S01E01.a.Call.to.Arms.1080p.NF.WEB-DL.DDP5.1.x264_SkiesIT.mkv - 990.5 MB
    Blood.of.Zeus.S01E02.Past.Is.Prologue.1080p.NF.WEB-DL.DDP5.1.x264_SkiesIT.mkv - 1.1 GB
    Blood.of.Zeus.S01E03.the.Raid.1080p.NF.WEB-DL.DDP5.1.x264_SkiesIT.mkv - 1.3 GB
    Blood.of.Zeus.S01E04.a.Monster.Is.Born.1080p.NF.WE B-DL.DDP5.1.x264_SkiesIT.mkv - 1.5 GB
    Blood.of.Zeus.S01E05.Escape.or.Die.1080p.NF.WEB-DL.DDP5.1.x264_SkiesIT.mkv - 1.2 GB
    Blood.of.Zeus.S01E06.Back.to.Olympus.1080p.NF.WEB-DL.DDP5.1.x264_SkiesIT.mkv - 1.6 GB
    Blood.of.Zeus.S01E07.the.Fields.of.the.Dead.1080p. NF.WEB-DL.DDP5.1.x264_SkiesIT.mkv - 1.7 GB
    Blood.of.Zeus.S01E08.War.for.Olympus.1080p.NF.WEB-DL.DDP5.1.x264_SkiesIT.mkv - 1.8 GB

  2. The Following 2 Users Say Thank You to Duckload.us For This Useful Post:

    adisorntor (10-29-2020), Wesker_TOT (10-30-2020)

  3. #2
    Senior Member
    สมัครเมื่อ
    Jul 2013
    โพสต์
    1,422
    Thanks
    0
    Thanked 0 Times in 0 Posts
    ขอบคุณครับผม

  4. #3
    Senior Member
    สมัครเมื่อ
    Dec 2013
    โพสต์
    2,501
    Thanks
    4,425
    Thanked 0 Times in 0 Posts
    ขอบคุณนะครับ...

  5. #4
    Senior Member
    สมัครเมื่อ
    May 2012
    โพสต์
    811
    Thanks
    0
    Thanked 0 Times in 0 Posts
    ขอบคุณครับ

+ ตอบกลับกระทู้

ข้อมูลกระทู้

Users Browsing this Thread

ในขณะนี้มี 1 ท่านดูกระทู้อยู่. (0 สมาชิกและ 1 ผู้เยี่ยมชม)

     

กฎการโพสต์ข้อความ

  • ท่าน ไม่สามารถ ตั้งกระทู้ใหม่ได้
  • ท่าน ไม่สามารถ ตอบกระทู้ได้
  • ท่าน ไม่สามารถ แนบไฟล์ได้
  • ท่าน ไม่สามารถ แก้ไขข้อความโพสต์ได้
  • BB code สถานะ เปิด
  • Smilies สถานะ เปิด
  • [IMG] สถานะ เปิด
  • HTML สถานะ ปิด