+ ตอบกลับกระทู้
สรุปผลการค้นหา 1 ถึง 2 จากทั้งหมด 2
  1. #1
    Administrators รูปส่วนตัว Duckload.us
    สมัครเมื่อ
    Dec 2010
    โพสต์
    120,850
    Thanks
    7
    Thanked 126,277 Times in 56,397 Posts

    Angry [ฝรั่ง]-[พิเศษมีเสียงไทย] The Way Back (2020) : เส้นทางเกียรติยศ-Blu-ray.H.264.1080p. [Modified]-[พากย์ไทย-พากย์อังกฤษDTS-บรรยายไทยคมชัด PGS]



    หนังเล่าเรื่องของ แจ็ค (Ben Affleck) พนักงานก่อสร้างติดเหล้าที่วันหนึ่งถูกทาบทามจากโรงเ รียนคาทอลิกที่ตัวเองเคยอยู่ให้ไปเป็นโค้ชทีมบาสเก็ต บอลแบบกะทันหัน (หลังโค้ชคนก่อนหน้ามีอาการหัวใจวาย) แจ็คเคยเป็นนักบาสที่โรงเรียนแห่งนี้ สร้างความสำเร็จและชื่อเสียงเอาไว้มากจนกลายเป็น Top Player ตลอดกาลของสถาบัน แต่ตอนนี้ไม่ใช่ตอนนั้น ปัจจุบันแจ็คไม่ได้เล่นบาส ไม่ได้สนใจกีฬานี้อีกต่อไป เขากลายเป็นคนติดเหล้า ดื่มตลอดเวลา ทุกที่ ทุกโอกาส ทุกกิจกรรมของชีวิตต้องมีแอลกอฮอล์เป็นส่วนร่วมอยู่เ สมอ

    Format : Matroska
    Format version : Version 4 / Version 2
    File size : 3.78 GiB
    Duration : 1 h 48 min
    Overall bit rate : 4 987 kb/s
    Writing application : mkvmerge v48.0.0 ('Fortress Around Your Heart') 64-bit
    Writing library : libebml v1.4.0 + libmatroska v1.6.0

    Video
    ID : 1
    Format : AVC
    Format/Info : Advanced Video Codec
    Format profile : [email protected]
    Format settings, CABAC : Yes
    Format settings, ReFrames : 4 frames
    Codec ID : V_MPEG4/ISO/AVC
    Duration : 1 h 48 min
    Bit rate : 3 750 kb/s
    Width : 1 920 pixels
    Height : 804 pixels
    Display aspect ratio : 2.40:1
    Frame rate mode : Constant
    Frame rate : 23.976 (24000/1001) FPS
    Color space : YUV
    Chroma subsampling : 4:2:0
    Bit depth : 8 bits
    Scan type : Progressive
    Bits/(Pixel*Frame) : 0.101
    Language : English
    Default : Yes
    Forced : Yes

    Audio #1
    ID : 2
    Format : AC-3
    Format/Info : Audio Coding 3
    Mode extension : CM (complete main)
    Format settings, Endianness : Big
    Codec ID : A_AC3
    Duration : 1 h 48 min
    Bit rate mode : Constant
    Bit rate : 448 kb/s
    Channel(s) : 2 channels
    Channel positions : Front: L R
    Sampling rate : 48.0 kHz
    Frame rate : 31.250 FPS (1536 spf)
    Compression mode : Lossy
    Stream size : 347 MiB (9%)
    Language : Thai
    Default : Yes
    Forced : Yes

    Audio #2
    ID : 3
    Format : DTS
    Format/Info : Digital Theater Systems
    Mode : 16
    Format settings, Endianness : Big
    Codec ID : A_DTS
    Duration : 1 h 48 min
    Bit rate mode : Constant
    Bit rate : 755 kb/s
    Channel(s) : 6 channels
    Channel positions : Front: L C R, Side: L R, LFE
    Sampling rate : 48.0 kHz
    Frame rate : 93.750 FPS (512 spf)
    Bit depth : 24 bits
    Compression mode : Lossy
    Stream size : 585 MiB (15%)
    Language : English
    Default : No
    Forced : No

    Text #1
    ID : 4
    Format : PGS
    Muxing mode : zlib
    Codec ID : S_HDMV/PGS
    Codec ID/Info : Picture based subtitle format used on BDs/HD-DVDs
    Duration : 1 h 45 min
    Bit rate : 42.3 kb/s
    Count of elements : 3112
    Stream size : 31.9 MiB (1%)
    Language : Thai
    Default : No
    Forced : No

    Text #2
    ID : 5
    Format : PGS
    Muxing mode : zlib
    Codec ID : S_HDMV/PGS
    Codec ID/Info : Picture based subtitle format used on BDs/HD-DVDs
    Duration : 1 h 45 min
    Bit rate : 37.7 kb/s
    Count of elements : 3112
    Stream size : 28.4 MiB (1%)
    Title : Yellow
    Language : Thai
    Default : No
    Forced : No

    Text #3
    ID : 6
    Format : UTF-8
    Codec ID : S_TEXT/UTF8
    Codec ID/Info : UTF-8 Plain Text
    Duration : 1 h 45 min
    Bit rate : 148 b/s
    Count of elements : 1556
    Stream size : 114 KiB (0%)
    Language : Thai
    Default : No
    Forced : No

    Text #4
    ID : 7
    Format : UTF-8
    Codec ID : S_TEXT/UTF8
    Codec ID/Info : UTF-8 Plain Text
    Duration : 1 h 39 min
    Bit rate : 69 b/s
    Count of elements : 1561
    Stream size : 50.3 KiB (0%)
    Language : English
    Default : No
    Forced : No









    http://cornfile.com/u9yk2f8lop7g

  2. #2
    Senior Member
    สมัครเมื่อ
    Jul 2013
    โพสต์
    1,422
    Thanks
    0
    Thanked 0 Times in 0 Posts
    ขอบคุณครับ

+ ตอบกลับกระทู้

ข้อมูลกระทู้

Users Browsing this Thread

ในขณะนี้มี 1 ท่านดูกระทู้อยู่. (0 สมาชิกและ 1 ผู้เยี่ยมชม)

     

กฎการโพสต์ข้อความ

  • ท่าน ไม่สามารถ ตั้งกระทู้ใหม่ได้
  • ท่าน ไม่สามารถ ตอบกระทู้ได้
  • ท่าน ไม่สามารถ แนบไฟล์ได้
  • ท่าน ไม่สามารถ แก้ไขข้อความโพสต์ได้
  • BB code สถานะ เปิด
  • Smilies สถานะ เปิด
  • [IMG] สถานะ เปิด
  • HTML สถานะ ปิด