+ ตอบกลับกระทู้
สรุปผลการค้นหา 1 ถึง 2 จากทั้งหมด 2
  1. #1
    Administrators รูปส่วนตัว Duckload.us
    สมัครเมื่อ
    Dec 2010
    โพสต์
    120,618
    Thanks
    7
    Thanked 125,978 Times in 56,306 Posts

    Angry [ฝรั่ง]-[* ใหม่!! NETFLIX *] His House (2020) : บ้านของใคร [เสียงอังกฤษ 5.1 Atmos] [บรรยายไทย + อังกฤษ] [ซับไทย Master From Netflix + ซับ SRT , PGS]-WEB-DL.H.264.1080p. [Modified]-[Soundtrack บรรยายไทย]




    หลังผ่านพ้นฝันร้ายในอดีต บ้านหลังนี้เป็นสัญลักษณ์แห่งการเริ่มต้นใหม่ของพวกเ ขา แต่ปีศาจร้ายที่ซ่อนอยู่ในนั้นอาจไม่ยินยอม
    คู่รักหนุ่มสาวที่ลี้ภัยสงครามมาจากเซาท์ซูดานหาที่พ ักพิงเพื่อเริ่มต้นชีวิตใหม่ในอังกฤษ แต่แล้วทั้งสองก็ต้องทรมานจากสิ่งชั่วร้ายที่สถิตอยู ่ในบ้านหลังใหม่

    Format : Matroska
    Format version : Version 4
    File size : 2.57 GiB
    Duration : 1 h 33 min
    Overall bit rate mode : Variable
    Overall bit rate : 3 932 kb/s
    Movie name : His.House.2020.1080p.NF.WEB-DL.DDP5.1.Atmos.x264_SkiesIT
    Encoded date : UTC 2020-10-30 08:02:48
    Writing application : mkvmerge v49.0.0 ('Sick Of Losing Soulmates') 64-bit
    Writing library : libebml v1.4.0 + libmatroska v1.6.1

    Video
    ID : 1
    Format : AVC
    Format/Info : Advanced Video Codec
    Format profile : [email protected]
    Format settings : CABAC / 3 Ref Frames
    Format settings, CABAC : Yes
    Format settings, Reference frames : 3 frames
    Codec ID : V_MPEG4/ISO/AVC
    Duration : 1 h 33 min
    Bit rate mode : Variable
    Bit rate : 3 160 kb/s
    Maximum bit rate : 4 740 kb/s
    Width : 1 920 pixels
    Height : 1 080 pixels
    Display aspect ratio : 16:9
    Frame rate mode : Constant
    Frame rate : 24.000 FPS
    Color space : YUV
    Chroma subsampling : 4:2:0
    Bit depth : 8 bits
    Scan type : Progressive
    Bits/(Pixel*Frame) : 0.063
    Stream size : 2.04 GiB (80%)
    Title : His.House.2020.1080p.NF.WEB-DL.DDP5.1.Atmos.x264_SkiesIT
    Writing library : x264 core 148 r2722 1b0121b
    Encoding settings : cabac=1 / ref=3 / deblock=1:0:0 / analyse=0x1:0x111 / me=umh / subme=10 / psy=1 / psy_rd=1.00:0.00 / mixed_ref=1 / me_range=24 / chroma_me=1 / trellis=2 / 8x8dct=0 / cqm=0 / deadzone=21,11 / fast_pskip=1 / chroma_qp_offset=-2 / threads=8 / lookahead_threads=1 / sliced_threads=0 / nr=0 / decimate=1 / interlaced=0 / bluray_compat=0 / stitchable=1 / constrained_intra=0 / bframes=2 / b_pyramid=0 / b_adapt=2 / b_bias=0 / direct=3 / weightb=1 / open_gop=0 / weightp=2 / keyint=250 / keyint_min=24 / scenecut=0 / intra_refresh=0 / rc_lookahead=48 / rc=2pass / mbtree=1 / bitrate=3160 / ratetol=1.0 / qcomp=0.50 / qpmin=6 / qpmax=51 / qpstep=4 / cplxblur=20.0 / qblur=0.5 / vbv_maxrate=4740 / vbv_bufsize=6320 / nal_hrd=vbr / filler=0 / ip_ratio=1.40 / aq=1:1.00
    Language : English
    Default : Yes
    Forced : No

    Audio
    ID : 2
    Format : E-AC-3 JOC
    Format/Info : Enhanced AC-3 with Joint Object Coding
    Commercial name : Dolby Digital Plus with Dolby Atmos
    Codec ID : A_EAC3
    Duration : 1 h 33 min
    Bit rate mode : Constant
    Bit rate : 768 kb/s
    Channel(s) : 6 channels
    Channel layout : L R C LFE Ls Rs
    Sampling rate : 48.0 kHz
    Frame rate : 31.250 FPS (1536 SPF)
    Compression mode : Lossy
    Stream size : 513 MiB (20%)
    Language : English
    Service kind : Complete Main
    Default : Yes
    Forced : No
    Complexity index : 16
    Number of dynamic objects : 15
    Bed channel count : 1 channel
    Bed channel configuration : LFE

    Text #1
    ID : 3
    Format : UTF-8
    Codec ID : S_TEXT/UTF8
    Codec ID/Info : UTF-8 Plain Text
    Duration : 1 h 26 min
    Bit rate : 49 b/s
    Count of elements : 557
    Stream size : 31.4 KiB (0%)
    Title : Thai SRT From Netflix
    Language : Thai
    Default : Yes
    Forced : No

    Text #2
    ID : 4
    Format : UTF-8
    Codec ID : S_TEXT/UTF8
    Codec ID/Info : UTF-8 Plain Text
    Duration : 1 h 25 min
    Bit rate : 38 b/s
    Count of elements : 1042
    Stream size : 24.0 KiB (0%)
    Title : English SRT
    Language : English
    Default : No
    Forced : No

    Text #3
    ID : 5
    Format : PGS
    Muxing mode : zlib
    Codec ID : S_HDMV/PGS
    Codec ID/Info : Picture based subtitle format used on BDs/HD-DVDs
    Duration : 1 h 26 min
    Bit rate : 15.2 kb/s
    Count of elements : 1114
    Stream size : 9.36 MiB (0%)
    Title : Thai PGS [Angsana]
    Language : Thai
    Default : No
    Forced : No

    Text #4
    ID : 6
    Format : PGS
    Muxing mode : zlib
    Codec ID : S_HDMV/PGS
    Codec ID/Info : Picture based subtitle format used on BDs/HD-DVDs
    Duration : 1 h 26 min
    Bit rate : 15.2 kb/s
    Count of elements : 1114
    Stream size : 9.36 MiB (0%)
    Title : Thai PGS [Angsana Yellow]
    Language : Thai
    Default : No
    Forced : No

    Text #5
    ID : 7
    Format : PGS
    Muxing mode : zlib
    Codec ID : S_HDMV/PGS
    Codec ID/Info : Picture based subtitle format used on BDs/HD-DVDs
    Duration : 1 h 26 min
    Bit rate : 15.0 kb/s
    Count of elements : 1114
    Stream size : 9.24 MiB (0%)
    Title : Thai PGS [Sarabun]
    Language : Thai
    Default : No
    Forced : No

    Text #6
    ID : 8
    Format : PGS
    Muxing mode : zlib
    Codec ID : S_HDMV/PGS
    Codec ID/Info : Picture based subtitle format used on BDs/HD-DVDs
    Duration : 1 h 26 min
    Bit rate : 15.0 kb/s
    Count of elements : 1114
    Stream size : 9.24 MiB (0%)
    Title : Thai PGS [Sarabun Yellow]
    Language : Thai
    Default : No
    Forced : No

    Text #7
    ID : 9
    Format : PGS
    Muxing mode : zlib
    Codec ID : S_HDMV/PGS
    Codec ID/Info : Picture based subtitle format used on BDs/HD-DVDs
    Duration : 1 h 25 min
    Bit rate : 24.6 kb/s
    Count of elements : 2084
    Stream size : 15.0 MiB (1%)
    Title : English PGS
    Language : English
    Default : No
    Forced : No











    His.House.2020.1080p.NF.WEB-DL.DDP5.1.Atmos.x264_SkiesIT.mkv - 2.6 GB
    His.House.2020.1080p.WEB.H264.mkv - 2.5 GB

  2. The Following User Says Thank You to Duckload.us For This Useful Post:

    Wesker_TOT (10-31-2020)

  3. #2
    Senior Member
    สมัครเมื่อ
    Dec 2013
    โพสต์
    2,490
    Thanks
    4,415
    Thanked 0 Times in 0 Posts
    ขอบคุณครับ...

+ ตอบกลับกระทู้

ข้อมูลกระทู้

Users Browsing this Thread

ในขณะนี้มี 1 ท่านดูกระทู้อยู่. (0 สมาชิกและ 1 ผู้เยี่ยมชม)

     

กฎการโพสต์ข้อความ

  • ท่าน ไม่สามารถ ตั้งกระทู้ใหม่ได้
  • ท่าน ไม่สามารถ ตอบกระทู้ได้
  • ท่าน ไม่สามารถ แนบไฟล์ได้
  • ท่าน ไม่สามารถ แก้ไขข้อความโพสต์ได้
  • BB code สถานะ เปิด
  • Smilies สถานะ เปิด
  • [IMG] สถานะ เปิด
  • HTML สถานะ ปิด