+ ตอบกลับกระทู้
สรุปผลการค้นหา 1 ถึง 3 จากทั้งหมด 3
  1. #1
    Administrators รูปส่วนตัว Duckload.us
    สมัครเมื่อ
    Dec 2010
    โพสต์
    120,776
    Thanks
    7
    Thanked 126,214 Times in 56,377 Posts

    Thumbs up [ฝรั่ง]-[* Disney+ *] The Mandalorian - เดอะแมนดาโลเรียน มนุษย์ดาวมฤตยู | Season 2 - EP.1-4 [เสียงอังกฤษ 5.1 Atmos] [บรรยายไทย + อังกฤษ] [ซับไทยแปล + ซับ SRT , PGS]-WEB-DL.H.264.1080p. [Hi-def rip from Master]-[Soundtrack บรรยายไทย (แปล)]




    เดอะแมนดาโลเรียน - มนุษย์ดาวมฤตยู เกิดขึ้น หลังการล่มสลายของจักรวรรดิ และก่อนการเกิดขึ้นของปฐมภาคี และตามติดเรื่องราวของ มือปืนที่อยู่ด้านนอกของกาแล็กซีอันไกลโพ้นจากเงื้อม มือของสาธารณรัฐใหม่


    Format : Matroska
    Format version : Version 4
    File size : 3.37 GiB
    Duration : 51 min 48 s
    Overall bit rate mode : Variable
    Overall bit rate : 9 307 kb/s
    Movie name : The.Mandalorian.S02E01.Chapter.9.The.Marshal.1080p .DSNP.WEB-DL.DDP5.1.Atmos.x264_SkiesIT
    Encoded date : UTC 2020-11-01 11:11:33
    Writing application : mkvmerge v49.0.0 ('Sick Of Losing Soulmates') 64-bit
    Writing library : libebml v1.4.0 + libmatroska v1.6.1

    Video
    ID : 1
    Format : AVC
    Format/Info : Advanced Video Codec
    Format profile : [email protected]
    Format settings : CABAC / 4 Ref Frames
    Format settings, CABAC : Yes
    Format settings, Reference frames : 4 frames
    Codec ID : V_MPEG4/ISO/AVC
    Duration : 51 min 48 s
    Bit rate mode : Variable
    Bit rate : 8 489 kb/s
    Maximum bit rate : 12.7 Mb/s
    Width : 1 920 pixels
    Height : 1 080 pixels
    Display aspect ratio : 16:9
    Frame rate mode : Constant
    Frame rate : 23.976 (24000/1001) FPS
    Color space : YUV
    Chroma subsampling : 4:2:0
    Bit depth : 8 bits
    Scan type : Progressive
    Bits/(Pixel*Frame) : 0.171
    Stream size : 3.07 GiB (91%)
    Title : The.Mandalorian.S02E01.Chapter.9.The.Marshal.1080p .DSNP.WEB-DL.DDP5.1.Atmos.x264_SkiesIT
    Language : English
    Default : Yes
    Forced : No
    Color range : Limited
    Color primaries : BT.709
    Transfer characteristics : BT.709
    Matrix coefficients : BT.709

    Audio
    ID : 2
    Format : E-AC-3 JOC
    Format/Info : Enhanced AC-3 with Joint Object Coding
    Commercial name : Dolby Digital Plus with Dolby Atmos
    Codec ID : A_EAC3
    Duration : 51 min 48 s
    Bit rate mode : Constant
    Bit rate : 768 kb/s
    Channel(s) : 6 channels
    Channel layout : L R C LFE Ls Rs
    Sampling rate : 48.0 kHz
    Frame rate : 31.250 FPS (1536 SPF)
    Compression mode : Lossy
    Stream size : 285 MiB (8%)
    Title : English
    Language : English
    Service kind : Complete Main
    Default : Yes
    Forced : No
    Complexity index : 16
    Number of dynamic objects : 15
    Bed channel count : 1 channel
    Bed channel configuration : LFE

    Text #1
    ID : 3
    Format : UTF-8
    Codec ID : S_TEXT/UTF8
    Codec ID/Info : UTF-8 Plain Text
    Duration : 49 min 8 s
    Bit rate : 73 b/s
    Count of elements : 336
    Stream size : 26.4 KiB (0%)
    Title : Thai SRT
    Language : Thai
    Default : Yes
    Forced : No

    Text #2
    ID : 4
    Format : UTF-8
    Codec ID : S_TEXT/UTF8
    Codec ID/Info : UTF-8 Plain Text
    Duration : 48 min 25 s
    Bit rate : 43 b/s
    Count of elements : 481
    Stream size : 15.4 KiB (0%)
    Title : English SRT
    Language : English
    Default : No
    Forced : No

    Text #3
    ID : 5
    Format : PGS
    Muxing mode : zlib
    Codec ID : S_HDMV/PGS
    Codec ID/Info : Picture based subtitle format used on BDs/HD-DVDs
    Duration : 49 min 8 s
    Bit rate : 21.9 kb/s
    Count of elements : 672
    Stream size : 7.71 MiB (0%)
    Title : Thai PGS [Angsana]
    Language : Thai
    Default : No
    Forced : No

    Text #4
    ID : 6
    Format : PGS
    Muxing mode : zlib
    Codec ID : S_HDMV/PGS
    Codec ID/Info : Picture based subtitle format used on BDs/HD-DVDs
    Duration : 49 min 8 s
    Bit rate : 21.9 kb/s
    Count of elements : 672
    Stream size : 7.71 MiB (0%)
    Title : Thai PGS [Angsana Yellow]
    Language : Thai
    Default : No
    Forced : No

    Text #5
    ID : 7
    Format : PGS
    Muxing mode : zlib
    Codec ID : S_HDMV/PGS
    Codec ID/Info : Picture based subtitle format used on BDs/HD-DVDs
    Duration : 49 min 8 s
    Bit rate : 21.7 kb/s
    Count of elements : 672
    Stream size : 7.61 MiB (0%)
    Title : Thai PGS [Sarabun]
    Language : Thai
    Default : No
    Forced : No

    Text #6
    ID : 8
    Format : PGS
    Muxing mode : zlib
    Codec ID : S_HDMV/PGS
    Codec ID/Info : Picture based subtitle format used on BDs/HD-DVDs
    Duration : 49 min 8 s
    Bit rate : 21.7 kb/s
    Count of elements : 672
    Stream size : 7.61 MiB (0%)
    Title : Thai PGS [Sarabun Yellow]
    Language : Thai
    Default : No
    Forced : No

    Text #7
    ID : 9
    Format : PGS
    Muxing mode : zlib
    Codec ID : S_HDMV/PGS
    Codec ID/Info : Picture based subtitle format used on BDs/HD-DVDs
    Duration : 48 min 25 s
    Bit rate : 29.4 kb/s
    Count of elements : 962
    Stream size : 10.2 MiB (0%)
    Title : English PGS
    Language : English
    Default : No
    Forced : No












    Download: filecondo
    1
    http://www.filecondo.com/dl.php?f=N256971KzuWp
    2 1080p [บรรยายไทยเเปลGoogle]
    http://www.filecondo.com/dl.php?f=X0c2081KDTj3
    3 1080p [บรรยายไทยเเปลGoogle]
    http://www.filecondo.com/dl.php?f=c9587e1KFG6p
    4 1080p [บรรยายไทยเเปลGoogle]
    http://www.filecondo.com/dl.php?f=J7476d1KGrjt

    Download: cornfile
    1 http://cornfile.com/w5rji9l08wwg
    2 1080p [บรรยายไทยเเปลGoogle]
    http://cornfile.com/wg9o144bc25n
    3 1080p [หลายภาษาให้เลือก]
    http://cornfile.com/6adqr4faxstk
    4 1080p [บรรยายไทยเเปลGoogle]
    http://cornfile.com/lj6d80ugno30

  2. The Following 4 Users Say Thank You to Duckload.us For This Useful Post:

    gozilla02 (11-16-2020), neorun (11-07-2020), rthrlimited (11-02-2020), Wesker_TOT (11-03-2020)

  3. #2
    Senior Member
    สมัครเมื่อ
    Dec 2013
    โพสต์
    2,497
    Thanks
    4,421
    Thanked 0 Times in 0 Posts
    ขอบคุณครับ...

  4. #3
    Senior Member
    สมัครเมื่อ
    Jul 2013
    โพสต์
    1,416
    Thanks
    0
    Thanked 0 Times in 0 Posts
    ขอบคุณครับ

+ ตอบกลับกระทู้

ข้อมูลกระทู้

Users Browsing this Thread

ในขณะนี้มี 1 ท่านดูกระทู้อยู่. (0 สมาชิกและ 1 ผู้เยี่ยมชม)

     

กฎการโพสต์ข้อความ

  • ท่าน ไม่สามารถ ตั้งกระทู้ใหม่ได้
  • ท่าน ไม่สามารถ ตอบกระทู้ได้
  • ท่าน ไม่สามารถ แนบไฟล์ได้
  • ท่าน ไม่สามารถ แก้ไขข้อความโพสต์ได้
  • BB code สถานะ เปิด
  • Smilies สถานะ เปิด
  • [IMG] สถานะ เปิด
  • HTML สถานะ ปิด