+ ตอบกลับกระทู้
สรุปผลการค้นหา 1 ถึง 3 จากทั้งหมด 3
  1. #1
    Administrators รูปส่วนตัว Duckload.us
    สมัครเมื่อ
    Dec 2010
    โพสต์
    120,776
    Thanks
    7
    Thanked 126,214 Times in 56,377 Posts

    Angry [ฝรั่ง]- Unhinged (2020) เฮียคลั่ง ดับเครื่องชน [พากย์:ไทยโรงเท่านั้น][SUB:NO-SUB][1080p]




    เรื่องราวของคุณแม่ยังสาว เรเชล (คาเรน พิสตอเรียส) ที่เช้าวันหนึ่งเธอดันไปทำงานสายและระหว่างที่รถติดอ ยู่ที่แยกไฟแดง เธอบีบแตรใส่รถคันหนึ่งโดยที่ไม่รู้เลยว่าเหตุการณ์น ี้จะเปลี่ยนชีวิตเธอไปตลอดกาล เมื่อมันทั้งผิดคน ผิดที่ ผิดเวลา การบีบแตรดังกล่าวจุดระเบิดโทสะให้กับเพื่อนร่วมถนนท ี่เป็น ชายวิกลจริต (รัสเซล โครว์) จนมันทำให้ชีวิตเธอตกอยู่ในอันตราย เพราะเขาตั้งใจมอบบทเรียนให้กับสังคมโดยใช้เธอและครอ บครัวเป็นตัวอย่าง มันคือจุดเริ่มต้นของเกมแมวไล่จับหนูที่มีชีวิตเป็นเ ดิมพัน เธอต้องหาทางรวบรวมความกล้าเมื่อการคุกคามเริ่มจะอัน ตรายขึ้นทุกวินาที

    Format : MPEG-4
    Format profile : Base Media
    Codec ID : isom (isom/iso2/avc1/mp41)
    File size : 1.41 GiB
    Duration : 1 h 26 min
    Overall bit rate : 2 333 kb/s
    Writing application : Lavf58.26.101

    Video
    ID : 1
    Format : AVC
    Format/Info : Advanced Video Codec
    Format profile : [email protected]
    Format settings : CABAC / 4 Ref Frames
    Format settings, CABAC : Yes
    Format settings, Reference frames : 4 frames
    Codec ID : avc1
    Codec ID/Info : Advanced Video Coding
    Duration : 1 h 26 min
    Bit rate : 2 200 kb/s
    Width : 1 920 pixels
    Height : 800 pixels
    Display aspect ratio : 2.40:1
    Frame rate mode : Constant
    Frame rate : 24.000 FPS
    Color space : YUV
    Chroma subsampling : 4:2:0
    Bit depth : 8 bits
    Scan type : Progressive
    Bits/(Pixel*Frame) : 0.060
    Stream size : 1.33 GiB (94%)
    Writing library : x264 core 157
    Encoding settings : cabac=1 / ref=1 / deblock=1:0:0 / analyse=0x3:0x3 / me=dia / subme=1 / psy=1 / psy_rd=1.00:0.00 / mixed_ref=0 / me_range=16 / chroma_me=1 / trellis=0 / 8x8dct=1 / cqm=0 / deadzone=21,11 / fast_pskip=1 / chroma_qp_offset=0 / threads=15 / lookahead_threads=2 / sliced_threads=0 / nr=0 / decimate=1 / interlaced=0 / bluray_compat=0 / constrained_intra=0 / bframes=3 / b_pyramid=2 / b_adapt=1 / b_bias=0 / direct=1 / weightb=1 / open_gop=0 / weightp=1 / keyint=250 / keyint_min=24 / scenecut=40 / intra_refresh=0 / rc=2pass / mbtree=0 / bitrate=2200 / ratetol=1.0 / qcomp=0.60 / qpmin=0 / qpmax=69 / qpstep=4 / cplxblur=20.0 / qblur=0.5 / ip_ratio=1.40 / pb_ratio=1.30 / aq=1:1.00
    Codec configuration box : avcC

    Audio
    ID : 2
    Format : AAC LC
    Format/Info : Advanced Audio Codec Low Complexity
    Codec ID : mp4a-40-2
    Duration : 1 h 26 min
    Duration_LastFrame : -3 ms
    Bit rate mode : Constant
    Bit rate : 128 kb/s
    Channel(s) : 2 channels
    Channel layout : L R
    Sampling rate : 48.0 kHz
    Frame rate : 46.875 FPS (1024 SPF)
    Compression mode : Lossy
    Stream size : 79.3 MiB (5%)
    Default : Yes
    Alternate group : 1





    http://cornfile.com/5uqbocjwz1ab

  2. The Following User Says Thank You to Duckload.us For This Useful Post:

    Wesker_TOT (11-23-2020)

  3. #2
    Senior Member
    สมัครเมื่อ
    Dec 2013
    โพสต์
    2,497
    Thanks
    4,421
    Thanked 0 Times in 0 Posts
    ขอบคุณครับ...

  4. #3
    Senior Member
    สมัครเมื่อ
    Jul 2013
    โพสต์
    1,416
    Thanks
    0
    Thanked 0 Times in 0 Posts
    ขอบคุณครับผ ม

+ ตอบกลับกระทู้

ข้อมูลกระทู้

Users Browsing this Thread

ในขณะนี้มี 1 ท่านดูกระทู้อยู่. (0 สมาชิกและ 1 ผู้เยี่ยมชม)

     

กฎการโพสต์ข้อความ

  • ท่าน ไม่สามารถ ตั้งกระทู้ใหม่ได้
  • ท่าน ไม่สามารถ ตอบกระทู้ได้
  • ท่าน ไม่สามารถ แนบไฟล์ได้
  • ท่าน ไม่สามารถ แก้ไขข้อความโพสต์ได้
  • BB code สถานะ เปิด
  • Smilies สถานะ เปิด
  • [IMG] สถานะ เปิด
  • HTML สถานะ ปิด