+ ตอบกลับกระทู้
สรุปผลการค้นหา 1 ถึง 2 จากทั้งหมด 2
  1. #1
    Administrators รูปส่วนตัว Duckload.us
    สมัครเมื่อ
    Dec 2010
    โพสต์
    120,883
    Thanks
    7
    Thanked 126,371 Times in 56,432 Posts

    Angry { ฝรั่ง } Final Kill ฆ่าครั้งสุดท้าย (2020) 1080p. mkv. { เสียงไทย AC2.0 เท่านั้น } - { บรรยายซับไทยฝัง }



    Kill ฆ่าครั้งสุดท้าย (2020) อีกชื่อ: Assassination Island เรื่องราวของทหารรับจ้างที่ได้รับการว่าจ้างให้ปกป้อ งคู่สามีภรรยาที่ซ่อนตัวอยู่ในอเมริกากลางจากครอบครั วอาชญากรรมที่โหดเหี้ยม ในงานมอบหมายสุดท้ายของเขาในฐานะผู้พิทักษ์มันกลายเป ็นอันตรายอย่างรวดเร็วเมื่อกลุ่มมาเฟียลูกน้องของพวก มาเฟียลงมาในหมู่บ้านคอสตาริกาอันเงียบสงบในไม่ช้าตั วแทนก็รู้ว่างานนั้นมีมากกว่าที่คิดและต้องใช้ประสบก ารณ์ทั้งหมดเพื่อทำให้พวกเขามีชีวิต
    Format : Matroska
    Format version : Version 4
    File size : 2.21 GiB
    Duration : 1 h 16 min
    Overall bit rate : 4 107 kb/s
    Writing application : Lavf58.29.100
    Writing library : Lavf58.29.100
    ErrorDetectionType : Per level 1

    Video
    ID : 1
    Format : AVC
    Format/Info : Advanced Video Codec
    Format profile : [email protected]
    Format settings : CABAC / 4 Ref Frames
    Format settings, CABAC : Yes
    Format settings, Reference frames : 4 frames
    Codec ID : V_MPEG4/ISO/AVC
    Duration : 1 h 16 min
    Bit rate : 4 000 kb/s
    Width : 1 920 pixels
    Height : 1 080 pixels
    Display aspect ratio : 16:9
    Frame rate mode : Variable
    Color space : YUV
    Chroma subsampling : 4:2:0
    Bit depth : 8 bits
    Scan type : Progressive
    Stream size : 2.10 GiB (95%)
    Writing library : x264 core 157 r2970 5493be8
    Encoding settings : cabac=1 / ref=3 / deblock=1:0:0 / analyse=0x3:0x113 / me=hex / subme=7 / psy=1 / psy_rd=1.00:0.00 / mixed_ref=1 / me_range=16 / chroma_me=1 / trellis=1 / 8x8dct=1 / cqm=0 / deadzone=21,11 / fast_pskip=1 / chroma_qp_offset=-2 / threads=12 / lookahead_threads=2 / sliced_threads=0 / nr=0 / decimate=1 / interlaced=0 / bluray_compat=0 / constrained_intra=0 / bframes=3 / b_pyramid=2 / b_adapt=1 / b_bias=0 / direct=1 / weightb=1 / open_gop=0 / weightp=2 / keyint=250 / keyint_min=25 / scenecut=40 / intra_refresh=0 / rc_lookahead=40 / rc=abr / mbtree=1 / bitrate=4000 / ratetol=1.0 / qcomp=0.60 / qpmin=0 / qpmax=69 / qpstep=4 / ip_ratio=1.40 / aq=1:1.00
    Default : Yes
    Forced : No

    Audio
    ID : 2
    Format : MPEG Audio
    Format version : Version 1
    Format profile : Layer 3
    Format settings : Joint stereo / MS Stereo
    Codec ID : A_MPEG/L3
    Codec ID/Hint : MP3
    Duration : 1 h 16 min
    Bit rate mode : Constant
    Bit rate : 128 kb/s
    Channel(s) : 2 channels
    Sampling rate : 44.1 kHz
    Compression mode : Lossy
    Stream size : 70.5 MiB (3%)
    Writing library : Lavc58.54.100 libmp3lame
    Default : Yes
    Forced : No





    Final Kill ฆ่าครั้งสุดท้าย (2020).mkv - 1.6 GB
    Final Kill 2020 - ฆ่าครั้งสุดท้าย MKVพากษ์ไทยมาสเตอร์MP3.mkv - 2.2 GB

  2. #2
    Senior Member
    สมัครเมื่อ
    Jul 2013
    โพสต์
    1,425
    Thanks
    0
    Thanked 0 Times in 0 Posts
    ขอบคุณนะครับผม

+ ตอบกลับกระทู้

ข้อมูลกระทู้

Users Browsing this Thread

ในขณะนี้มี 1 ท่านดูกระทู้อยู่. (0 สมาชิกและ 1 ผู้เยี่ยมชม)

     

กฎการโพสต์ข้อความ

  • ท่าน ไม่สามารถ ตั้งกระทู้ใหม่ได้
  • ท่าน ไม่สามารถ ตอบกระทู้ได้
  • ท่าน ไม่สามารถ แนบไฟล์ได้
  • ท่าน ไม่สามารถ แก้ไขข้อความโพสต์ได้
  • BB code สถานะ เปิด
  • Smilies สถานะ เปิด
  • [IMG] สถานะ เปิด
  • HTML สถานะ ปิด