+ ตอบกลับกระทู้
สรุปผลการค้นหา 1 ถึง 2 จากทั้งหมด 2
  1. #1
    Administrators รูปส่วนตัว Duckload.us
    สมัครเมื่อ
    Dec 2010
    โพสต์
    122,358
    Thanks
    7
    Thanked 127,645 Times in 56,901 Posts

    Angry [ฝรั่ง]- Black Water Abyss (2020) กระชากนรก โคตรไอ้เข้ ( SOUND ENG – THR SUB ENG – TH )-WEB-DL.H.264.1080p. [Modified]-[พากย์ไทยโรง]



    ภาพยนตร์ฝรั่ง แนวลุ้นระทึก เรื่อง Black Water Abyss (2020) กระชากนรก โคตรไอ้เข้ ( SOUND ENG – THR SUB ENG – TH )

    วันที่ออกฉาย : 12 สิงหาคม 2563 (ประเทศไทย)
    ผู้กำกับ : แอนดรูว์ ทรอคกี
    ภาพยนตร์ซีรี่ส์ : Black Water
    ผู้ผลิต : ไมเคิล โรเบิร์ตสัน, เนล คิงสตัน, แพม คอลลิส
    บทภาพยนตร์: จอห์น ริดลีย์, ซาราห์ สมิธ

    Format : Matroska
    Format version : Version 4
    File size : 5.90 GiB
    Duration : 1 h 38 min
    Overall bit rate : 8 602 kb/s
    Encoded date : UTC 2020-08-28 01:50:43
    Writing application : mkvmerge v26.0.0 ('In The Game') 64-bit
    Writing library : libebml v1.3.6 + libmatroska v1.4.9

    Video
    ID : 1
    Format : AVC
    Format/Info : Advanced Video Codec
    Format profile : [email protected]
    Format settings : CABAC / 4 Ref Frames
    Format settings, CABAC : Yes
    Format settings, Reference frames : 4 frames
    Codec ID : V_MPEG4/ISO/AVC
    Duration : 1 h 38 min
    Bit rate mode : Constant
    Bit rate : 7 768 kb/s
    Nominal bit rate : 10 000 kb/s
    Width : 1 920 pixels
    Height : 800 pixels
    Display aspect ratio : 2.40:1
    Frame rate mode : Constant
    Frame rate : 23.976 (24000/1001) FPS
    Color space : YUV
    Chroma subsampling : 4:2:0
    Bit depth : 8 bits
    Scan type : Progressive
    Bits/(Pixel*Frame) : 0.211
    Stream size : 5.33 GiB (90%)
    Default : Yes
    Forced : No
    Color range : Limited
    Color primaries : BT.709
    Transfer characteristics : BT.709
    Matrix coefficients : BT.709

    Audio #1
    ID : 2
    Format : E-AC-3
    Format/Info : Enhanced AC-3
    Commercial name : Dolby Digital Plus
    Codec ID : A_EAC3
    Duration : 1 h 38 min
    Bit rate mode : Constant
    Bit rate : 640 kb/s
    Channel(s) : 6 channels
    Channel layout : L R C LFE Ls Rs
    Sampling rate : 48.0 kHz
    Frame rate : 31.250 FPS (1536 SPF)
    Compression mode : Lossy
    Stream size : 450 MiB (7%)
    Language : English
    Service kind : Complete Main
    Default : No
    Forced : No

    Audio #2
    ID : 5
    Format : AAC LC
    Format/Info : Advanced Audio Codec Low Complexity
    Codec ID : A_AAC-2
    Duration : 1 h 38 min
    Bit rate : 192 kb/s
    Channel(s) : 2 channels
    Channel layout : L R
    Sampling rate : 44.1 kHz
    Frame rate : 43.066 FPS (1024 SPF)
    Compression mode : Lossy
    Stream size : 135 MiB (2%)
    Title : เสียงไทย โดย ดีเจ อาท
    Language : Thai
    Default : Yes
    Forced : Yes

    Text #1
    ID : 3
    Format : UTF-8
    Codec ID : S_TEXT/UTF8
    Codec ID/Info : UTF-8 Plain Text
    Duration : 1 h 33 min
    Bit rate : 24 b/s
    Count of elements : 785
    Stream size : 16.8 KiB (0%)
    Language : English
    Default : No
    Forced : No

    Text #2
    ID : 4
    Format : UTF-8
    Codec ID : S_TEXT/UTF8
    Codec ID/Info : UTF-8 Plain Text
    Duration : 1 h 33 min
    Bit rate : 61 b/s
    Count of elements : 787
    Stream size : 42.3 KiB (0%)
    Language : Thai
    Default : Yes
    Forced : No





    http://cornfile.com/nf1tfalzlw8g

  2. The Following User Says Thank You to Duckload.us For This Useful Post:

    Wesker_TOT (11-24-2020)

  3. #2
    Senior Member
    สมัครเมื่อ
    Dec 2013
    โพสต์
    2,543
    Thanks
    4,465
    Thanked 0 Times in 0 Posts
    ขอบคุณครับ...

+ ตอบกลับกระทู้

ข้อมูลกระทู้

Users Browsing this Thread

ในขณะนี้มี 1 ท่านดูกระทู้อยู่. (0 สมาชิกและ 1 ผู้เยี่ยมชม)

     

กฎการโพสต์ข้อความ

  • ท่าน ไม่สามารถ ตั้งกระทู้ใหม่ได้
  • ท่าน ไม่สามารถ ตอบกระทู้ได้
  • ท่าน ไม่สามารถ แนบไฟล์ได้
  • ท่าน ไม่สามารถ แก้ไขข้อความโพสต์ได้
  • BB code สถานะ เปิด
  • Smilies สถานะ เปิด
  • [IMG] สถานะ เปิด
  • HTML สถานะ ปิด