+ ตอบกลับกระทู้
สรุปผลการค้นหา 1 ถึง 4 จากทั้งหมด 4
  1. #1
    Administrators รูปส่วนตัว Duckload.us
    สมัครเมื่อ
    Dec 2010
    โพสต์
    122,358
    Thanks
    7
    Thanked 127,645 Times in 56,901 Posts

    Angry [18+] Return to Sender (รัก แรง แค้น) 2015 (ซับแปล)-Encode.H.264.1080p.[Modified]-[Soundtrack บรรยายไทย] พยาบาลสาวกับคนร้ายที่ขืนใจเป็ดน้อยเธอ





    เรื่องย่อ... มิแรนดา(โรสมุนด์ ไพค์)พยาบาลที่กำลังจะได้เลื่อนขั้นเป็นพยาบาลห้องผ่ าตัด มิแรนดาจะขายบ้านเก่าเตรียมย้ายไปอยู่บ้านหลังใหม่ มิแรนดาไปเยี่ยมพ่อแล้วถูกหมาของพ่อกระโจนใส่ มิแรนดามีนัดบอดกับเควินหนุ่มที่เพื่อนจับคู่ให้ วันนัดระหว่างมิแรนดากำลังทาเล็บเตรียมออกเดทก็มีชาย แปลกหน้ามาอยู่หน้าบ้าน มิแรนดาคิดว่าเป็นเควินคู่นัดเลยเปิดประตูรับเข้าบ้า น มิแรนดาถูกข่มขืนทำร้ายร่างกายจากนั้นคนร้ายก็วิ่งหน ีไป ตัดมาที่เควินตัวจริงมาที่บ้าน

    ตำรวจมาสอบถามมิแรนดาให้การว่าจำคนร้ายได้ต่อมาคนร้า ยมีชื่อว่าวิลเลียม ฟินน์ก็ถูกจับ มิแรนดากลับมาใช้ชีวิตปกติแต่มือขวาของมิแรนดามีอากา รสั่น มิแรนดารู้ตัวว่าต้องพลาดโอกาสได้เป็นพยาบาลห้องผ่าต ัดก็เริ่มแก้แค้น อีกสาเหตุก็คือบ้านของมิแรนดาไม่มีคนซื้อทำให้มิแรนด าไม่สามารถซื้อบ้านหลังใหม่ได้ มิแรนดาส่งจดหมายถึงวิลเลียมที่อยู่ในคุกแต่จดหมายถู กตีกลับตลอด<<<<ปั๊มตรา Return to Sender มิแรนดาไม่ละความพยายามเปลี่ยนซองส่งไปใหม่จนกระทั่ง ฉบับสุดท้ายมีลายมือเขียนว่า You Win ที่หลังซอง มิแรนดาไปเยี่ยมพูดคุยเรื่องทั่วไปกับวิลเลียมเรื่อย ๆจนกระทั่งวิลเลียมได้ออกจากคุก

    มิแรนดาเริ่มปรับปรุงบ้านให้น่าอยู่ขึ้นเพื่อจะขาย หมาของพ่อมิแรนดาเริ่มป่วยอาการเหมือนถูกพิษมิแรนดาห มั่นไปให้อาหารหมาและเริ่มคุ้นเคยกับหมาของพ่อ วิลเลียมมาหามิแรนดาที่บ้าน มิแรนดายอมให้วิลเลียมช่วยทำบ้านต่อ วิลเลียมแวะไปซื้อสีพ่อของมิแรนดารู้ว่าวิลเลียมออกจ ากคุกก็มาหามิแรนดา มิแรนดาบอกพ่อไม่ตอ้งเป็นห่วงต่อมาหมาของพ่อมิแรนดาก ็ตายเพราะถูกมิแรนดาวางยามาตลอด มิแรนดาวางยาในน้ำมะนาวของวิลเลียมจากนั้นก็จับไปมัด กับเตียงในห้องใต้ดิน มิแรนดาตัดมือวิลเลียมจากนั้นก็น่าจะตัด….ของวิลเลีย ม<<<<<ภาพทำให้เชื่อแบบนั้น ตัดมาที่มิแรนดาไปเยี่ยมพ่อและบอกประมาณวิลเลียมจะไม ่เป็นปัญหาอีกต่อไป

    Format : Matroska
    Format version : Version 4
    File size : 3.60 GiB
    Duration : 1 h 37 min
    Overall bit rate : 5 314 kb/s
    Movie name : Return.To.Sender.2015==Modified by Dirtydog==
    Encoded date : UTC 2015-09-04 16:54:34
    Writing application : mkvmerge v6.9.1 ('Blue Panther') 32bit built on Apr 18 2014 18:15:44
    Writing library : libebml v1.3.0 + libmatroska v1.4.1
    Cover : Yes
    Attachments : cover_land.jpg / small_cover.jpg / small_cover_land.jpg / cover.jpg

    Video
    ID : 1
    Format : AVC
    Format/Info : Advanced Video Codec
    Format profile : [email protected]
    Format settings : CABAC / 4 Ref Frames
    Format settings, CABAC : Yes
    Format settings, Reference frames : 4 frames
    Codec ID : V_MPEG4/ISO/AVC
    Duration : 1 h 37 min
    Bit rate : 4 824 kb/s
    Width : 1 912 pixels
    Height : 1 028 pixels
    Display aspect ratio : 1.85:1
    Frame rate mode : Constant
    Frame rate : 23.976 FPS
    Color space : YUV
    Chroma subsampling : 4:2:0
    Bit depth : 8 bits
    Scan type : Progressive
    Bits/(Pixel*Frame) : 0.102
    Stream size : 3.27 GiB (91%)
    Title : Return.To.Sender.2015.1080p.WEB-DL.DD5.1.H264-FGT
    Language : English
    Default : Yes
    Forced : No
    Color range : Limited
    Color primaries : BT.709
    Transfer characteristics : BT.709
    Matrix coefficients : BT.709

    Audio
    ID : 2
    Format : AC-3
    Format/Info : Audio Coding 3
    Commercial name : Dolby Digital
    Codec ID : A_AC3
    Duration : 1 h 37 min
    Bit rate mode : Constant
    Bit rate : 384 kb/s
    Channel(s) : 6 channels
    Channel layout : L R C LFE Ls Rs
    Sampling rate : 48.0 kHz
    Frame rate : 31.250 FPS (1536 SPF)
    Compression mode : Lossy
    Stream size : 266 MiB (7%)
    Title : Return.To.Sender.2015.1080p.WEB-DL.DD5.1.H264-FGT
    Language : English
    Service kind : Complete Main
    Default : Yes
    Forced : No

    Text #1
    ID : 3
    Format : VobSub
    Codec ID : S_VOBSUB
    Codec ID/Info : Picture based subtitle format used on DVDs
    Language : Thai
    Default : Yes
    Forced : Yes

    Text #2
    ID : 4
    Format : VobSub
    Codec ID : S_VOBSUB
    Codec ID/Info : Picture based subtitle format used on DVDs
    Language : Thai
    Default : No
    Forced : No

    Text #3
    ID : 5
    Format : VobSub
    Codec ID : S_VOBSUB
    Codec ID/Info : Picture based subtitle format used on DVDs
    Language : Thai
    Default : No
    Forced : No

    Text #4
    ID : 6
    Format : UTF-8
    Codec ID : S_TEXT/UTF8
    Codec ID/Info : UTF-8 Plain Text
    Language : Thai
    Default : No
    Forced : No





    http://cornfile.com/fr4582ft2sal

  2. The Following 2 Users Say Thank You to Duckload.us For This Useful Post:

    gaszolineskywalker (12-04-2020), Wesker_TOT (11-26-2020)

  3. #2
    Senior Member
    สมัครเมื่อ
    Jul 2013
    โพสต์
    1,622
    Thanks
    0
    Thanked 0 Times in 0 Posts
    ขอบคุณค๊าบ

  4. #3
    Senior Member
    สมัครเมื่อ
    Dec 2013
    โพสต์
    2,543
    Thanks
    4,465
    Thanked 0 Times in 0 Posts
    ขอบคุณนะครับ...

  5. #4
    Senior Member
    สมัครเมื่อ
    Oct 2012
    โพสต์
    1,406
    Thanks
    2,336
    Thanked 0 Times in 0 Posts
    ขอบคุณครับ

+ ตอบกลับกระทู้

ข้อมูลกระทู้

Users Browsing this Thread

ในขณะนี้มี 1 ท่านดูกระทู้อยู่. (0 สมาชิกและ 1 ผู้เยี่ยมชม)

     

กฎการโพสต์ข้อความ

  • ท่าน ไม่สามารถ ตั้งกระทู้ใหม่ได้
  • ท่าน ไม่สามารถ ตอบกระทู้ได้
  • ท่าน ไม่สามารถ แนบไฟล์ได้
  • ท่าน ไม่สามารถ แก้ไขข้อความโพสต์ได้
  • BB code สถานะ เปิด
  • Smilies สถานะ เปิด
  • [IMG] สถานะ เปิด
  • HTML สถานะ ปิด