ภาพยนตร์ไต้หวัน แนวสยองขวัญ เรื่อง The Bridge Curse (2020) คำสาปสะพานเฮี้ยน SOUND CHI – THR MULTI SUB( มีซับไทย )

วันที่ออกฉาย : 16 กรกฎาคม 2563 (ประเทศไทย)
ผู้กำกับ : เลสเตอร์ ชิห์
บทภาพยนตร์ : เคง-มิงก์ ไอหลิง
ประพันธ์ดนตรีโดย : Wen Tzu-chieh

เรื่องย่อ :

จากตำนานสุดสยองที่มีอยู่จริงสู่จอภาพยนตร์ ตำนานดังกล่าวได้พูดถึง นักศึกษาสาวคนหนึ่ง ที่รอคอยคนรักอยู่ที่สะพาน แต่เธอกลับถูกทอดทิ้งอย่างโดดเดี่ยวจนตรอมใจและปลิดช ีวิตตัวเองลง ณ สะพานแห่งนั้น หลังจากนั้นเป็นต้นมาในช่วงเวลาเที่ยงคืน บันไดของสะพานดังกล่าวก็จะเพิ่มขึ้นมาอีก 1 ขั้นเป็น 14 ขั้น และถ้าหากมีผู้ใดที่หันหลังกลับมาก่อนที่จะเดินถึงขั ้นสุดท้าย คนผู้นั้นก็จะหายสาบสูญไปตลอดกาล และในวันหนึ่งเด็กนักศึกษากลุ่มหนึ่งก็ได้มาลองดีกับ ตำนานนี้ด้วยการไลฟ์สตรีมสดในช่วงเวลาเที่ยงคืน โดนหารู้ไม่ว่าตำนานดังกล่าวไม่ได้เป็นแค่เรื่องเล่า ธรรมดา


Format : Matroska
Format version : Version 4
File size : 3.50 GiB
Duration : 1 h 27 min
Overall bit rate mode : Variable
Overall bit rate : 5 707 kb/s
Movie name : ติดตามได้ที่ : https://onlystreammovies.blogspot.com
Encoded date : UTC 2020-11-27 05:20:44
Writing application : mkvmerge v40.0.0 ('Old Town Road + Pony') 32-bit
Writing library : libebml v1.3.9 + libmatroska v1.5.2

Video
ID : 1
Format : AVC
Format/Info : Advanced Video Codec
Format profile : [email protected]
Format settings : CABAC / 3 Ref Frames
Format settings, CABAC : Yes
Format settings, Reference frames : 3 frames
Codec ID : V_MPEG4/ISO/AVC
Duration : 1 h 27 min
Bit rate mode : Variable
Bit rate : 4 870 kb/s
Maximum bit rate : 7 305 kb/s
Width : 1 920 pixels
Height : 1 080 pixels
Display aspect ratio : 16:9
Frame rate mode : Constant
Frame rate : 24.000 FPS
Color space : YUV
Chroma subsampling : 4:2:0
Bit depth : 8 bits
Scan type : Progressive
Bits/(Pixel*Frame) : 0.098
Stream size : 2.98 GiB (85%)
Title : The Bridge Curse (2020)
Writing library : x264 core 148 r2717 0d2410d
Encoding settings : cabac=1 / ref=3 / deblock=1:0:0 / analyse=0x1:0x111 / me=umh / subme=10 / psy=1 / psy_rd=1.00:0.00 / mixed_ref=1 / me_range=24 / chroma_me=1 / trellis=2 / 8x8dct=0 / cqm=0 / deadzone=21,11 / fast_pskip=1 / chroma_qp_offset=-2 / threads=6 / lookahead_threads=1 / sliced_threads=0 / nr=0 / decimate=1 / interlaced=0 / bluray_compat=0 / stitchable=1 / constrained_intra=0 / bframes=2 / b_pyramid=0 / b_adapt=2 / b_bias=0 / direct=3 / weightb=1 / open_gop=0 / weightp=2 / keyint=250 / keyint_min=24 / scenecut=0 / intra_refresh=0 / rc_lookahead=48 / rc=2pass / mbtree=1 / bitrate=4870 / ratetol=1.0 / qcomp=0.50 / qpmin=6 / qpmax=51 / qpstep=4 / cplxblur=20.0 / qblur=0.5 / vbv_maxrate=7305 / vbv_bufsize=9740 / nal_hrd=vbr / filler=0 / ip_ratio=1.40 / aq=1:1.00
Language : Chinese
Default : Yes
Forced : No

Audio #1
ID : 2
Format : E-AC-3
Format/Info : Enhanced AC-3
Commercial name : Dolby Digital Plus
Codec ID : A_EAC3
Duration : 1 h 27 min
Bit rate mode : Constant
Bit rate : 640 kb/s
Channel(s) : 6 channels
Channel layout : L R C LFE Ls Rs
Sampling rate : 48.0 kHz
Frame rate : 31.250 FPS (1536 SPF)
Compression mode : Lossy
Stream size : 402 MiB (11%)
Title : Mandarin Chinese (TWN) Audio Dolby Digital Plus (E-AC-3) 640 kb/s
Language : Chinese
Service kind : Complete Main
Default : Yes
Forced : No

Audio #2
ID : 12
Format : AAC LC
Format/Info : Advanced Audio Codec Low Complexity
Codec ID : A_AAC-2
Duration : 1 h 27 min
Bit rate : 210 kb/s
Channel(s) : 2 channels
Channel layout : L R
Sampling rate : 44.1 kHz
Frame rate : 43.066 FPS (1024 SPF)
Compression mode : Lossy
Stream size : 132 MiB (4%)
Title : ไทยโรง
Default : No
Forced : No

Text #1
ID : 3
Format : UTF-8
Codec ID : S_TEXT/UTF8
Codec ID/Info : UTF-8 Plain Text
Duration : 1 h 26 min
Bit rate : 45 b/s
Count of elements : 1000
Stream size : 28.7 KiB (0%)
Language : English
Default : Yes
Forced : No

Text #2
ID : 4
Format : UTF-8
Codec ID : S_TEXT/UTF8
Codec ID/Info : UTF-8 Plain Text
Duration : 1 h 26 min
Bit rate : 34 b/s
Count of elements : 1021
Stream size : 21.6 KiB (0%)
Title : Traditional Chinese
Language : Chinese
Default : No
Forced : No

Text #3
ID : 5
Format : UTF-8
Codec ID : S_TEXT/UTF8
Codec ID/Info : UTF-8 Plain Text
Duration : 1 h 26 min
Bit rate : 35 b/s
Count of elements : 1052
Stream size : 22.3 KiB (0%)
Title : Simplified Chinese
Language : Chinese
Default : No
Forced : No

Text #4
ID : 6
Format : UTF-8
Codec ID : S_TEXT/UTF8
Codec ID/Info : UTF-8 Plain Text
Duration : 1 h 26 min
Bit rate : 44 b/s
Count of elements : 1011
Stream size : 28.0 KiB (0%)
Language : Indonesian
Default : No
Forced : No

Text #5
ID : 7
Format : UTF-8
Codec ID : S_TEXT/UTF8
Codec ID/Info : UTF-8 Plain Text
Duration : 1 h 26 min
Bit rate : 34 b/s
Count of elements : 951
Stream size : 21.5 KiB (0%)
Language : Japanese
Default : No
Forced : No

Text #6
ID : 8
Format : UTF-8
Codec ID : S_TEXT/UTF8
Codec ID/Info : UTF-8 Plain Text
Duration : 1 h 26 min
Bit rate : 42 b/s
Count of elements : 978
Stream size : 26.8 KiB (0%)
Language : Korean
Default : No
Forced : No

Text #7
ID : 9
Format : UTF-8
Codec ID : S_TEXT/UTF8
Codec ID/Info : UTF-8 Plain Text
Duration : 1 h 26 min
Bit rate : 45 b/s
Count of elements : 1012
Stream size : 29.0 KiB (0%)
Language : Malay
Default : No
Forced : No

Text #8
ID : 10
Format : UTF-8
Codec ID : S_TEXT/UTF8
Codec ID/Info : UTF-8 Plain Text
Duration : 1 h 26 min
Bit rate : 93 b/s
Count of elements : 1012
Stream size : 58.8 KiB (0%)
Language : Thai
Default : No
Forced : No

Text #9
ID : 11
Format : UTF-8
Codec ID : S_TEXT/UTF8
Codec ID/Info : UTF-8 Plain Text
Duration : 1 h 26 min
Bit rate : 60 b/s
Count of elements : 1012
Stream size : 38.0 KiB (0%)
Language : Vietnamese
Default : No
Forced : No





http://cornfile.com/en03saa87vab