+ ตอบกลับกระทู้
สรุปผลการค้นหา 1 ถึง 6 จากทั้งหมด 6
  1. #1
    Administrators รูปส่วนตัว Duckload.us
    สมัครเมื่อ
    Dec 2010
    โพสต์
    122,499
    Thanks
    7
    Thanked 127,777 Times in 56,943 Posts

    Angry [เกาหลี]-[Netflix **New** ] The Call - สายตรงต่ออดีต [2020]... [Netflix Master] [พากย์ไทย 5.1 + เกาหลี 5.1] [บรรยายไทย PGS/SRT + อังกฤษ PGS]-WEB-DL.H.264.1080p. [Master]-[พากย์ไทย บรรยายไทย]





    The Call สายตรงต่ออดีต หนังเกาหลีแนวระทึกขวัญ สั่นประสาทเรื่องใหม่แกะกล่องจาก Netflix นำแสดงโดย ‘พัคชินฮเย’ และ ‘จอนจงซอ’ เรื่องราวของของผู้หญิง 2 คนที่อยู่คนละช่วงเวลาห่างกัน 20 ปี แต่สามารถสื่อสารกันได้ผ่านโทรศัพท์ และหนึ่งในนั้นเป็นฆาตกรต่อเนื่อง

    Code:
    Format                      : Matroska
    Format version              : Version 4
    File size                   : 5.40 GiB
    Duration                    : 1 h 52 min
    Overall bit rate            : 6 879 kb/s
    Encoded date                : UTC 2020-11-27 13:40:48
    Writing application         : mkvmerge v51.0.0 ('I Wish') 64-bit
    Writing library             : libebml v1.4.0 + libmatroska v1.6.2
    
    Video
    ID                          : 1
    Format                      : AVC
    Format/Info                 : Advanced Video Codec
    Format profile              : [email protected]
    Format settings             : CABAC / 3 Ref Frames
    Format settings, CABAC      : Yes
    Format settings, Reference  : 3 frames
    Codec ID                    : V_MPEG4/ISO/AVC
    Duration                    : 1 h 52 min
    Bit rate                    : 4 919 kb/s
    Width                       : 1 920 pixels
    Height                      : 800 pixels
    Display aspect ratio        : 2.40:1
    Frame rate mode             : Constant
    Frame rate                  : 23.976 (24000/1001) FPS
    Color space                 : YUV
    Chroma subsampling          : 4:2:0
    Bit depth                   : 8 bits
    Scan type                   : Progressive
    Bits/(Pixel*Frame)          : 0.134
    Stream size                 : 3.86 GiB (72%)
    Language                    : Korean
    Default                     : Yes
    Forced                      : No
    
    Audio #1
    ID                          : 2
    Format                      : E-AC-3
    Format/Info                 : Enhanced AC-3
    Commercial name             : Dolby Digital Plus
    Codec ID                    : A_EAC3
    Duration                    : 1 h 52 min
    Bit rate mode               : Constant
    Bit rate                    : 640 kb/s
    Channel(s)                  : 6 channels
    Channel layout              : L R C LFE Ls Rs
    Sampling rate               : 48.0 kHz
    Frame rate                  : 31.250 FPS (1536 SPF)
    Compression mode            : Lossy
    Stream size                 : 514 MiB (9%)
    Title                       : E-AC3 Korean
    Language                    : Korean
    Service kind                : Complete Main
    Default                     : Yes
    Forced                      : No
    
    Audio #2
    ID                          : 3
    Format                      : E-AC-3
    Format/Info                 : Enhanced AC-3
    Commercial name             : Dolby Digital Plus
    Codec ID                    : A_EAC3
    Duration                    : 1 h 52 min
    Bit rate mode               : Constant
    Bit rate                    : 640 kb/s
    Channel(s)                  : 6 channels
    Channel layout              : L R C LFE Ls Rs
    Sampling rate               : 48.0 kHz
    Frame rate                  : 31.250 FPS (1536 SPF)
    Compression mode            : Lossy
    Stream size                 : 514 MiB (9%)
    Title                       : E-AC3 Thai
    Language                    : Thai
    Service kind                : Complete Main
    Default                     : No
    Forced                      : No
    
    Audio #3
    ID                          : 4
    Format                      : E-AC-3
    Format/Info                 : Enhanced AC-3
    Commercial name             : Dolby Digital Plus
    Codec ID                    : A_EAC3
    Duration                    : 1 h 52 min
    Bit rate mode               : Constant
    Bit rate                    : 640 kb/s
    Channel(s)                  : 6 channels
    Channel layout              : L R C LFE Ls Rs
    Sampling rate               : 48.0 kHz
    Frame rate                  : 31.250 FPS (1536 SPF)
    Compression mode            : Lossy
    Stream size                 : 514 MiB (9%)
    Title                       : E-AC3 English
    Language                    : English
    Service kind                : Complete Main
    Default                     : No
    Forced                      : No
    
    Text #1
    ID                          : 5
    Format                      : VobSub
    Muxing mode                 : zlib
    Codec ID                    : S_VOBSUB
    Codec ID/Info               : Picture based subtitle format used on DVDs
    Duration                    : 1 h 51 min
    Bit rate                    : 5 508 b/s
    Count of elements           : 818
    Stream size                 : 4.38 MiB (0%)
    Title                       : Sub Thai 1080p
    Language                    : Thai
    Default                     : No
    Forced                      : No
    
    Text #2
    ID                          : 6
    Format                      : UTF-8
    Codec ID                    : S_TEXT/UTF8
    Codec ID/Info               : UTF-8 Plain Text
    Duration                    : 1 h 51 min
    Bit rate                    : 61 b/s
    Count of elements           : 818
    Stream size                 : 50.4 KiB (0%)
    Title                       : Sub Thai SRT
    Language                    : Thai
    Default                     : No
    Forced                      : No
    
    Text #3
    ID                          : 7
    Format                      : PGS
    Muxing mode                 : zlib
    Codec ID                    : S_HDMV/PGS
    Codec ID/Info               : Picture based subtitle format used on BDs/HD-DVDs
    Duration                    : 1 h 51 min
    Bit rate                    : 18.2 kb/s
    Count of elements           : 1636
    Stream size                 : 14.5 MiB (0%)
    Title                       : Sub Thai PGS
    Language                    : Thai
    Default                     : No
    Forced                      : No
    
    Text #4
    ID                          : 8
    Format                      : PGS
    Muxing mode                 : zlib
    Codec ID                    : S_HDMV/PGS
    Codec ID/Info               : Picture based subtitle format used on BDs/HD-DVDs
    Duration                    : 1 h 51 min
    Bit rate                    : 17.9 kb/s
    Count of elements           : 1636
    Stream size                 : 14.2 MiB (0%)
    Title                       : Sub Thai PGS NETFLIX
    Language                    : Thai
    Default                     : Yes
    Forced                      : No
    
    Text #5
    ID                          : 9
    Format                      : VobSub
    Muxing mode                 : zlib
    Codec ID                    : S_VOBSUB
    Codec ID/Info               : Picture based subtitle format used on DVDs
    Duration                    : 1 h 50 min
    Bit rate                    : 5 434 b/s
    Count of elements           : 816
    Stream size                 : 4.28 MiB (0%)
    Title                       : Sub English 1080p
    Language                    : English
    Default                     : No
    Forced                      : No
    
    Text #6
    ID                          : 10
    Format                      : UTF-8
    Codec ID                    : S_TEXT/UTF8
    Codec ID/Info               : UTF-8 Plain Text
    Duration                    : 1 h 50 min
    Bit rate                    : 27 b/s
    Count of elements           : 816
    Stream size                 : 22.2 KiB (0%)
    Title                       : Sub English SRT
    Language                    : English
    Default                     : No
    Forced                      : No
    
    Text #7
    ID                          : 11
    Format                      : PGS
    Muxing mode                 : zlib
    Codec ID                    : S_HDMV/PGS
    Codec ID/Info               : Picture based subtitle format used on BDs/HD-DVDs
    Duration                    : 1 h 50 min
    Bit rate                    : 18.1 kb/s
    Count of elements           : 1632
    Stream size                 : 14.2 MiB (0%)
    Title                       : Sub English PGS
    Language                    : English
    Default                     : No
    Forced                      : No









    The Call (2020).mkv - 5.4 GB
    [Netflix]The Call - สายตรงต่ออดีต [2020] - VV.mkv - 5.5 GB

  2. The Following 3 Users Say Thank You to Duckload.us For This Useful Post:

    gaszolineskywalker (11-29-2020), sawara (11-28-2020), Wesker_TOT (11-29-2020)

  3. #2
    Senior Member
    สมัครเมื่อ
    Dec 2013
    โพสต์
    365
    Thanks
    292
    Thanked 0 Times in 0 Posts
    ขอบคุณครับ

  4. #3
    Senior Member
    สมัครเมื่อ
    Dec 2013
    โพสต์
    2,545
    Thanks
    4,467
    Thanked 0 Times in 0 Posts
    ขอบคุณนะครับ...

  5. #4
    Senior Member
    สมัครเมื่อ
    Jul 2012
    โพสต์
    7,220
    Thanks
    0
    Thanked 0 Times in 0 Posts
    ขอบคุณมากจ้า

  6. #5
    Senior Member
    สมัครเมื่อ
    Oct 2012
    โพสต์
    1,406
    Thanks
    2,336
    Thanked 0 Times in 0 Posts
    ขอบคุณครับ

  7. #6
    Senior Member
    สมัครเมื่อ
    Jul 2013
    โพสต์
    1,643
    Thanks
    0
    Thanked 0 Times in 0 Posts
    ขอบคุณครับผม

+ ตอบกลับกระทู้

ข้อมูลกระทู้

Users Browsing this Thread

ในขณะนี้มี 1 ท่านดูกระทู้อยู่. (0 สมาชิกและ 1 ผู้เยี่ยมชม)

     

กฎการโพสต์ข้อความ

  • ท่าน ไม่สามารถ ตั้งกระทู้ใหม่ได้
  • ท่าน ไม่สามารถ ตอบกระทู้ได้
  • ท่าน ไม่สามารถ แนบไฟล์ได้
  • ท่าน ไม่สามารถ แก้ไขข้อความโพสต์ได้
  • BB code สถานะ เปิด
  • Smilies สถานะ เปิด
  • [IMG] สถานะ เปิด
  • HTML สถานะ ปิด