+ ตอบกลับกระทู้
สรุปผลการค้นหา 1 ถึง 1 จากทั้งหมด 1
  1. #1
    Administrators รูปส่วนตัว Duckload.us
    สมัครเมื่อ
    Dec 2010
    โพสต์
    123,727
    Thanks
    7
    Thanked 128,756 Times in 57,289 Posts

    Angry [ฝรั่ง]-Adventureland (2009) แอดเวนเจอร์แลนด์ ซัมเมอร์นั้นวันรักแรก-Blu-ray.DTS.1080p. [Modified]-[พากย์ไทย บรรยายไทย]




    'เจมส์' ที่สอบติดมหาลัยรัฐชื่อดัง แต่ทางบ้านไม่มี เงินส่งเรียน ในระหว่างช่วงปิดเทอมซัมเมอร์ เขาจึงต้องไปทำงาน พิเศษที่สวนสนุกแถวบ้านที่ชื่อว่า Adventureland ซึ่งทำให้เขาได้มา พบกับ 'เอ็ม' แล้วความสัมพันธ์ของทั้งคู่ก็ค่อยๆก่อตัวขึ้น..


    Format : Matroska
    Format version : Version 4
    File size : 4.55 GiB
    Duration : 1 h 46 min
    Overall bit rate : 6 094 kb/s
    Encoded date : UTC 2020-11-23 14:13:03
    Writing application : mkvmerge v51.0.0 ('I Wish') 64-bit
    Writing library : libebml v1.4.0 + libmatroska v1.6.2

    Video
    ID : 1
    Format : AVC
    Format/Info : Advanced Video Codec
    Format profile : [email protected]
    Format settings : CABAC / 3 Ref Frames
    Format settings, CABAC : Yes
    Format settings, Reference : 3 frames
    Codec ID : V_MPEG4/ISO/AVC
    Duration : 1 h 46 min
    Bit rate : 4 075 kb/s
    Width : 1 920 pixels
    Height : 1 040 pixels
    Display aspect ratio : 1.85:1
    Frame rate mode : Constant
    Frame rate : 23.976 (24000/1001) FPS
    Color space : YUV
    Chroma subsampling : 4:2:0
    Bit depth : 8 bits
    Scan type : Progressive
    Bits/(Pixel*Frame) : 0.085
    Stream size : 3.04 GiB (67%)
    Language : English
    Default : Yes
    Forced : No

    Audio #1
    ID : 2
    Format : DTS
    Format/Info : Digital Theater Systems
    Codec ID : A_DTS
    Duration : 1 h 46 min
    Bit rate mode : Constant
    Bit rate : 1 509 kb/s
    Channel(s) : 6 channels
    Channel layout : C L R Ls Rs LFE
    Sampling rate : 48.0 kHz
    Frame rate : 93.750 FPS (512 SPF)
    Bit depth : 24 bits
    Compression mode : Lossy
    Stream size : 1.13 GiB (25%)
    Title : DTS English
    Language : English
    Default : Yes
    Forced : No

    Audio #2
    ID : 3
    Format : AC-3
    Format/Info : Audio Coding 3
    Commercial name : Dolby Digital
    Codec ID : A_AC3
    Duration : 1 h 46 min
    Bit rate mode : Constant
    Bit rate : 448 kb/s
    Channel(s) : 6 channels
    Channel layout : L R C LFE Ls Rs
    Sampling rate : 48.0 kHz
    Frame rate : 31.250 FPS (1536 SPF)
    Compression mode : Lossy
    Stream size : 342 MiB (7%)
    Title : AC-3 Thai
    Language : Thai
    Service kind : Complete Main
    Default : No
    Forced : No

    Text #1
    ID : 4
    Format : VobSub
    Muxing mode : zlib
    Codec ID : S_VOBSUB
    Codec ID/Info : Picture based subtitle format used on DVDs
    Duration : 1 h 43 min
    Bit rate : 12.2 kb/s
    Count of elements : 1329
    Stream size : 9.03 MiB (0%)
    Title : Sub Thai 1080p
    Language : Thai
    Default : No
    Forced : No

    Text #2
    ID : 5
    Format : UTF-8
    Codec ID : S_TEXT/UTF8
    Codec ID/Info : UTF-8 Plain Text
    Duration : 1 h 43 min
    Bit rate : 139 b/s
    Count of elements : 1329
    Stream size : 106 KiB (0%)
    Title : Sub Thai SRT
    Language : Thai
    Default : No
    Forced : No

    Text #3
    ID : 6
    Format : PGS
    Muxing mode : zlib
    Codec ID : S_HDMV/PGS
    Codec ID/Info : Picture based subtitle format used on BDs/HD-DVDs
    Duration : 1 h 43 min
    Bit rate : 39.4 kb/s
    Count of elements : 2658
    Stream size : 29.1 MiB (1%)
    Title : Sub Thai PGS
    Language : Thai
    Default : Yes
    Forced : No

    Text #4
    ID : 7
    Format : VobSub
    Muxing mode : zlib
    Codec ID : S_VOBSUB
    Codec ID/Info : Picture based subtitle format used on DVDs
    Duration : 1 h 43 min
    Bit rate : 16.1 kb/s
    Count of elements : 1673
    Stream size : 12.0 MiB (0%)
    Title : Sub English 1080p
    Language : English
    Default : No
    Forced : No

    Text #5
    ID : 8
    Format : UTF-8
    Codec ID : S_TEXT/UTF8
    Codec ID/Info : UTF-8 Plain Text
    Duration : 1 h 43 min
    Bit rate : 78 b/s
    Count of elements : 1673
    Stream size : 59.5 KiB (0%)
    Title : Sub English SRT
    Language : English
    Default : No
    Forced : No

    Text #6
    ID : 9
    Format : PGS
    Muxing mode : zlib
    Codec ID : S_HDMV/PGS
    Codec ID/Info : Picture based subtitle format used on BDs/HD-DVDs
    Duration : 1 h 43 min
    Bit rate : 51.4 kb/s
    Count of elements : 3346
    Stream size : 38.2 MiB (1%)
    Title : Sub English PGS
    Language : English
    Default : No
    Forced : No

    Menu
    00:00:00.000 : en:00:00:00.000
    00:05:05.305 : en:00:05:05.305
    00:11:01.661 : en:00:11:01.661
    00:13:48.327 : en:00:13:48.327
    00:17:08.569 : en:00:17:08.569
    00:20:42.658 : en:00:20:42.658
    00:23:48.093 : en:00:23:48.093
    00:26:14.573 : en:00:26:14.573
    00:29:18.006 : en:00:29:18.006
    00:29:56.795 : en:00:29:56.795
    00:33:39.517 : en:00:33:39.517
    00:35:50.565 : en:00:35:50.565
    00:38:28.306 : en:00:38:28.306
    00:41:45.503 : en:00:41:45.503
    00:45:24.722 : en:00:45:24.722
    00:46:55.104 : en:00:46:55.104
    00:48:38.457 : en:00:48:38.457
    00:49:15.536 : en:00:49:15.536
    00:50:09.882 : en:00:50:09.882
    00:56:16.123 : en:00:56:16.123
    01:05:15.954 : en:01:05:15.954
    01:07:29.963 : en:01:07:29.963
    01:13:31.032 : en:01:13:31.032
    01:20:42.838 : en:01:20:42.838
    01:22:18.934 : en:01:22:18.934
    01:24:25.477 : en:01:24:25.477
    01:32:33.548 : en:01:32:33.548
    01:39:52.987 : en:01:39:52.987
    01:43:33.249 : en:01:43:33.249
    01:43:59.525 : en:01:43:59.525



    http://cornfile.com/5kx4fg8orysw fix

  2. The Following User Says Thank You to Duckload.us For This Useful Post:

    kappa (01-16-2021)

+ ตอบกลับกระทู้

ข้อมูลกระทู้

Users Browsing this Thread

ในขณะนี้มี 1 ท่านดูกระทู้อยู่. (0 สมาชิกและ 1 ผู้เยี่ยมชม)

     

กฎการโพสต์ข้อความ

  • ท่าน ไม่สามารถ ตั้งกระทู้ใหม่ได้
  • ท่าน ไม่สามารถ ตอบกระทู้ได้
  • ท่าน ไม่สามารถ แนบไฟล์ได้
  • ท่าน ไม่สามารถ แก้ไขข้อความโพสต์ได้
  • BB code สถานะ เปิด
  • Smilies สถานะ เปิด
  • [IMG] สถานะ เปิด
  • HTML สถานะ ปิด