+ ตอบกลับกระทู้
สรุปผลการค้นหา 1 ถึง 5 จากทั้งหมด 5
  1. #1
    Administrators รูปส่วนตัว Duckload.us
    สมัครเมื่อ
    Dec 2010
    โพสต์
    125,114
    Thanks
    7
    Thanked 130,136 Times in 57,709 Posts

    Lightbulb [เกาหลี]-[Moon Lovers Scarlet Heart Ryeo ข้ามมิติ ลิขิตสวรรค์ Lee Joon Ki, IU, Kang Ha Neul, Hong Jong Hyun, Nam Joo Hyuk, Ji Soo TH Ep.1-20/End]-WEB-DL.H.264.1080p. [From HD-TV]-[Sound:Thai/Korea]-[Sub:Thai]




    ซีรี่ย์เกาหลี: Moon Lovers Scarlet Heart Ryeo
    ชื่อภาษาไทย: ข้ามมิติ ลิขิตสวรรค์
    ประเภท: Romance, Drama, Historical, Fantasy
    จำนวนตอน: 20 (ออกอากาศในไทย 25)
    นำแสดงโดย: Lee Joon Ki, IU, Kang Ha Neul, Hong Jong Hyun, Nam Joo Hyuk, Ji Soo
    ผู้กำกับ: Kim Kyu Tae
    เขียนบทโดย: Tong Hua (novel), Jo Yoon Young
    ออกอากาศทางสถานีโทรทัศน์: ช่อง 3
    เริ่มออกอากาศ: 27 ต.ค. 2017
    เวลาออกอากาศ: ทุกวันจันทร์ - วันศุกร์ 19:15 - 20:15 น.
    นักแสดง:
    Lee Joon Ki as Wang So, later King Gwangjong (4th Prince)
    Choi Hyun Jin as young Wang So
    Hong Dong Young as child Wang So
    IU as Go Ha Jin / Hae Soo
    Kang Ha Neul as Wang Wook, later King Daejong (8th Prince)
    Hong Jong Hyun as Wang Yo, later King Jungjong (3rd Prince)
    The Princes
    Kim San Ho as Wang Moo, later King Hyejong (1st Prince)
    Yoon Sun Woo as Wang Won, later Crown Prince Hyoeun (9th Prince)
    Byun Baek Hyun as Wang Eun, later Prince Gwangjoowon (10th Prince)
    Nam Joo Hyuk as Wang Wook / Baek Ah, later King Ahnjong (13th Prince)
    Ji Soo as Wang Jung, later Vice King Moonwon (14th Prince)
    Royal Household
    Jo Min Ki as Wang Gun, King Taejo of Goryeo
    Park Ji Young as Queen Shinmyung Soonsung, later Empress Dowager Yoo (King's 3rd consort, mother to Wang Yo, Wang So, and Wang Jung)
    Jung Kyung Soon as Queen Shin Jung, later Empress Hwangbo (King's 4th consort, mother to Wang Wook & Queen Daemok)
    Kang Han Na as Hwangbo Yeonhwa, later Queen Daemok
    Park Shi Eun as Lady Hae, later Queen Seonui (principal wife of Wang Wook)
    Woo Hee Jin as royal concubine Oh Soo Yun
    Z.Hera as Park Soon Duk (Park Soo Kyung's daughter)
    Goryeo Officials
    Kim Sung Kyoon as Choi Ji Mong (the astronomer)
    Sung Dong Il as General Park Soo Kyung
    Choi Byung Mo as Park Young Kyu (Wang Yo's father-in-law)
    Park Jung Hak as Wang Shik Ryum (The King's brother)
    Extended Cast
    Seo Hyun as Woo Hee, last Princess of Baekje
    Jin Ki Joo as Chae Ryung (Hae Soo's servant)
    Kim Kang Il as Kang's family member
    Jang Seo Hee as Wang Moo's daughter
    Seo Ga Eun as Hae Soo's daughter
    Nam Sung Joon
    Lee Chae Mi
    Lee Chae Min
    Lee Seung Gi as commoner during rain ritual (ep 10)
    Han Gab Soo
    Synopsis: ละครเรื้องนี้ดัดแปลงมาจาก Bu Bu Jing Xin นวนิยายจีนชื่อดังโดย Tong Hua ละครเรื่องนี้ได้ถูกถ่ายทำจนเสร็จเรียบร้อยก่อนออกอา กาศ เปิดกล้องเมื่อเดือนมกราคม ปี 2016 และปิดกล้องไปเมื่อวันที่ 30 มิถุนายน 2016
    หลังจากโกฮาจิน (รับบทโดย ไอยู) สาวสวยวัย 25 ปี พบเจอเรื่องร้ายๆ จึงไปนั่งดื่มเหล้าสวนสาธารณะ แต่บังเอิญเห็นเด็กตกน้ำที่บ่อน้ำในสวน จึงกระโดดลงไปช่วย ความมหัศจรรย์ของการข้ามมิติก็เกิดขึ้น เมื่อโกฮาจินหลุดไปอยู่ในที่อาบน้ำท่ามกลางเหล่าองค์ ชายรูปงาม ในสมัยราชวังโครยอ แต่ไม่ได้อยู่ในร่างของโกฮาจิน กลับอยู่ในร่างของหญิงสาวที่ชื่อแฮซู เรื่องวุ่นวายก็เกิดขึ้นตามมา เพราะโกฮาจินในร่างของแฮซูไม่มีความทรงจำของผู้หญิงท ี่ชื่อแฮซูหลงเหลืออยู่เลย ทำให้โกฮาจินต้องเรียนรู้และปรับตัวเพื่ออยู่ในสมัยอ ดีตให้ได้ ในตอนแรกเธอเผลอมีใจให้ชายหนุ่มที่อบอุ่นและอ่อนโยนอ ย่างองค์ชาย 8 วังอุค (รับบทโดย คังฮานีล) ซึ่งเป็นสามีของลูกพี่ลูกน้องเธอ แต่ภายหลังได้ตกหลุมรักชายหนุ่มที่ซ่อนแผลเป็น (ทั้งทางร่างกายและจิตใจ) ของตนไว้ภายใต้หน้ากากอย่างองค์ชาย 4 วังโซ (รับบทโดย อีจุนกิ) ที่ใครๆ ต่างก็หวาดกลัว กว่าจะรู้ตัวเธอก็ตกอยู่ท่ามกลางการแข่งขัน ห้ำหั่นทางการเมือง และการต่อสู้แย่งชิงราชบัลลังก์ในหมู่องค์ชาย แฮซูได้พบกับองค์ชายวังโซ (รับบทโดย อีจุนกิ) และเริ่มเกิดความรู้สึกดีดีกับองค์ชาย ท่ามกลางความขัดแย้งทางการเมือง การแย่งชิงราชบัลลังก์ที่เกิดขึ้นในวังหลวง ทางด้านวังโซก็มีความรู้สึกดีดีกับแฮซู หลังจากที่องค์ชายวังโซได้เป็นพระราชาก็มีเหตุการณ์ใ ห้ต้องพลัดพรากจากแฮซู โดยที่ไม่รู้ว่าแฮซูได้ให้กำเนิดลูกสาว 1 คน ความรักข้ามมิติที่ถูกลิขิตโดยสวรรค์ จะจบลงอย่างไร โปรดติดตามชมได้ในซีรี่ย์เกาหลี Moon Lovers Scarlet Heart Ryeo ข้ามมิติ ลิขิตสวรรค์
    Credit: franky

    General
    Unique ID : 319910381502666096600772047853619276444 (0xF0AC7F9244C81DA97E73BE7388F46A9C)
    Complete name : L:Moon Lovers Scarlet Heart Ryeo ข้ามมิติ ลิขิตสวรรค์Moon.Lovers.Scarlet.Heart.Ryeo.2016.S01 E09.1080p.Viu.WEB-DL.AAC.H.264.mkv
    Format : Matroska
    Format version : Version 4
    File size : 1.03 GiB
    Duration : 59 min 51 s
    Overall bit rate mode : Variable
    Overall bit rate : 2 452 kb/s
    Encoded date : UTC 2021-01-07 02:42:04
    Writing application : mkvmerge v19.0.0 ('Brave Captain') 64-bit
    Writing library : libebml v1.3.5 + libmatroska v1.4.8

    Video
    ID : 1
    Format : AVC
    Format/Info : Advanced Video Codec
    Format profile : [email protected]
    Format settings : CABAC / 4 Ref Frames
    Format settings, CABAC : Yes
    Format settings, Reference fra : 4 frames
    Codec ID : V_MPEG4/ISO/AVC
    Duration : 59 min 46 s
    Bit rate mode : Variable
    Bit rate : 2 158 kb/s
    Maximum bit rate : 4 500 kb/s
    Width : 1 920 pixels
    Height : 1 080 pixels
    Display aspect ratio : 16:9
    Frame rate mode : Constant
    Frame rate : 25.000 FPS
    Color space : YUV
    Chroma subsampling : 4:2:0
    Bit depth : 8 bits
    Scan type : Progressive
    Bits/(Pixel*Frame) : 0.042
    Stream size : 923 MiB (88%)
    Writing library : VOLO1.4.1
    Default : Yes
    Forced : No

    Audio #1
    ID : 2
    Format : AC-3
    Format/Info : Audio Coding 3
    Commercial name : Dolby Digital
    Codec ID : A_AC3
    Duration : 59 min 46 s
    Bit rate mode : Constant
    Bit rate : 192 kb/s
    Channel(s) : 2 channels
    Channel layout : L R
    Sampling rate : 48.0 kHz
    Frame rate : 31.250 FPS (1536 SPF)
    Bit depth : 16 bits
    Compression mode : Lossy
    Delay relative to video : -43 ms
    Stream size : 82.1 MiB (8%)
    Language : Thai
    Service kind : Complete Main
    Default : Yes
    Forced : No

    Audio #2
    ID : 3
    Format : AAC LC
    Format/Info : Advanced Audio Codec Low Complexity
    Codec ID : A_AAC-2
    Duration : 59 min 46 s
    Bit rate : 96.0 kb/s
    Channel(s) : 2 channels
    Channel layout : L R
    Sampling rate : 48.0 kHz
    Frame rate : 46.875 FPS (1024 SPF)
    Compression mode : Lossy
    Delay relative to video : -43 ms
    Stream size : 41.0 MiB (4%)
    Language : Korean
    Default : No
    Forced : No

    Text #1
    ID : 4
    Format : UTF-8
    Codec ID : S_TEXT/UTF8
    Codec ID/Info : UTF-8 Plain Text
    Duration : 59 min 48 s
    Bit rate : 108 b/s
    Count of elements : 638
    Stream size : 47.4 KiB (0%)
    Language : Thai
    Default : Yes
    Forced : No

    Text #2
    ID : 5
    Format : PGS
    Muxing mode : zlib
    Codec ID : S_HDMV/PGS
    Codec ID/Info : Picture based subtitle format used on BDs/HD-DVDs
    Duration : 59 min 48 s
    Bit rate : 16.6 kb/s
    Count of elements : 1276
    Stream size : 7.09 MiB (1%)
    Language : Thai
    Default : No
    Forced : No



    01 http://www.filecondo.com/dl.php?f=v5b1541KZy7F
    02 http://www.filecondo.com/dl.php?f=J2f12e1KZy8E
    03 http://www.filecondo.com/dl.php?f=7101271KZy9E
    04 http://www.filecondo.com/dl.php?f=ub061f1KZyaE
    05 http://www.filecondo.com/dl.php?f=Pffac21KZybF
    06 http://www.filecondo.com/dl.php?f=Y265e51KZycC
    07 http://www.filecondo.com/dl.php?f=l6535d1KZydt
    08 http://www.filecondo.com/dl.php?f=i4c8eb1KZyey
    09 http://www.filecondo.com/dl.php?f=w49ad31KZyfu
    10 http://www.filecondo.com/dl.php?f=f8a3981KZygs
    11 http://www.filecondo.com/dl.php?f=ne438e1KZyhl
    12 http://www.filecondo.com/dl.php?f=0ec14d1KZyij
    13 http://www.filecondo.com/dl.php?f=D3b98c1KZyks
    14 http://www.filecondo.com/dl.php?f=Xa23ea1KZymT
    15 http://www.filecondo.com/dl.php?f=E9601b1KZyoc
    16 http://www.filecondo.com/dl.php?f=fbf2781KZypb
    17 http://www.filecondo.com/dl.php?f=e993631KZyq4
    18 http://www.filecondo.com/dl.php?f=hb8c011KZyr0
    19 http://www.filecondo.com/dl.php?f=Y4d1cd1KZyrY
    20 http://www.filecondo.com/dl.php?f=ce86641KZysW

  2. The Following User Says Thank You to Duckload.us For This Useful Post:

    thatsna4555555 (01-09-2021)

  3. #2
    Senior Member
    สมัครเมื่อ
    Aug 2012
    โพสต์
    242
    Thanks
    0
    Thanked 0 Times in 0 Posts
    ขอบคุณมากครับ แต่โหลดมาเป็น Soundtrack ครับ

  4. #3
    Administrators รูปส่วนตัว Duckload.us
    สมัครเมื่อ
    Dec 2010
    โพสต์
    125,114
    Thanks
    7
    Thanked 130,136 Times in 57,709 Posts
    อ้างอิง โพสต์ต้นฉบับโดยคุณ sangoun ดูโพสต์
    ขอบคุณมากครับ แต่โหลดมาเป็น Soundtrack ครับ



    รับเรื่องไว้แล้วเดี๋ยวอัพแก้ไขให้ใหม่นะครับ น่าจะอัพผิดชุดครับท่าน ขออภัยในความไม่สะดวกนะครับ

  5. #4
    Administrators รูปส่วนตัว Duckload.us
    สมัครเมื่อ
    Dec 2010
    โพสต์
    125,114
    Thanks
    7
    Thanked 130,136 Times in 57,709 Posts
    เรียนแจ้ง แก้ไขแล้วครับ

  6. #5
    Senior Member
    สมัครเมื่อ
    May 2012
    โพสต์
    1,031
    Thanks
    0
    Thanked 0 Times in 0 Posts
    ขอบคุณครับ

+ ตอบกลับกระทู้

ข้อมูลกระทู้

Users Browsing this Thread

ในขณะนี้มี 1 ท่านดูกระทู้อยู่. (0 สมาชิกและ 1 ผู้เยี่ยมชม)

     

กฎการโพสต์ข้อความ

  • ท่าน ไม่สามารถ ตั้งกระทู้ใหม่ได้
  • ท่าน ไม่สามารถ ตอบกระทู้ได้
  • ท่าน ไม่สามารถ แนบไฟล์ได้
  • ท่าน ไม่สามารถ แก้ไขข้อความโพสต์ได้
  • BB code สถานะ เปิด
  • Smilies สถานะ เปิด
  • [IMG] สถานะ เปิด
  • HTML สถานะ ปิด