+ ตอบกลับกระทู้
สรุปผลการค้นหา 1 ถึง 2 จากทั้งหมด 2
  1. #1
    Administrators รูปส่วนตัว Duckload.us
    สมัครเมื่อ
    Dec 2010
    โพสต์
    122,358
    Thanks
    7
    Thanked 127,640 Times in 56,899 Posts

    Thumbs up [ฝรั่ง]-Inside Man: Most Wanted (2019) ปล้นข้ามโลก-WEB-DL.H.264.1080p. [Master]-[พากย์ไทยมาสเตอร์ ไม่มีบรรยาย]



    เรื่องย่อ: Inside Man: Most Wanted ปล้นข้ามโลก (2019) นักเจรจาต่อรองตัวประกัน NYPD ร่วมมือกับตัวแทนรัฐบาลกลาง เพื่อช่วยเหลือนักท่องเที่ยวนับสิบที่จัดตัวประกันใน ระหว่างการล้อม 10 ชั่วโมงที่ธนาคารกลางสหรัฐ...!!!

    Format : Matroska
    Format version : Version 2
    File size : 4.51 GiB
    Duration : 1 h 45 min
    Overall bit rate mode : Constant
    Overall bit rate : 6 131 kb/s
    Movie name : Inside Man- Most Wanted (2019) ปล้นข้ามโลก.trim01
    Encoded date : UTC 2021-01-10 02:44:09
    Writing application : DVDFab 11.0.8.5
    Writing library : libebml v1.3.4 + libmatroska v1.4.5

    Video
    ID : 1
    Format : AVC
    Format/Info : Advanced Video Codec
    Format profile : [email protected]
    Format settings : CABAC / 1 Ref Frames
    Format settings, CABAC : Yes
    Format settings, Reference frames : 1 frame
    Format settings, GOP : M=1, N=24
    Codec ID : V_MPEG4/ISO/AVC
    Duration : 1 h 45 min
    Bit rate mode : Constant
    Bit rate : 5 937 kb/s
    Nominal bit rate : 6 629 kb/s
    Width : 1 920 pixels
    Height : 960 pixels
    Display aspect ratio : 2.000
    Frame rate mode : Constant
    Frame rate : 23.976 (24000/1001) FPS
    Color space : YUV
    Chroma subsampling : 4:2:0
    Bit depth : 8 bits
    Scan type : Progressive
    Bits/(Pixel*Frame) : 0.134
    Stream size : 4.36 GiB (97%)
    Default : Yes
    Forced : No
    Color range : Limited
    Color primaries : BT.709
    Transfer characteristics : BT.709
    Matrix coefficients : BT.709

    Audio
    ID : 2
    Format : AC-3
    Format/Info : Audio Coding 3
    Commercial name : Dolby Digital
    Codec ID : A_AC3
    Duration : 1 h 45 min
    Bit rate mode : Constant
    Bit rate : 192 kb/s
    Channel(s) : 2 channels
    Channel layout : L R
    Sampling rate : 48.0 kHz
    Frame rate : 31.250 FPS (1536 SPF)
    Compression mode : Lossy
    Stream size : 144 MiB (3%)
    Service kind : Complete Main
    Default : Yes
    Forced : No





    Download:cornfile
    http://cornfile.com/tp6t0g6x6ptc
    Download:filecondo
    http://www.filecondo.com/dl.php?f=U22dab1KYO0l

  2. The Following 2 Users Say Thank You to Duckload.us For This Useful Post:

    noi54 (01-12-2021), sawara (01-11-2021)

  3. #2
    Senior Member
    สมัครเมื่อ
    Jul 2013
    โพสต์
    1,618
    Thanks
    0
    Thanked 0 Times in 0 Posts
    ขอบคุณครับ

+ ตอบกลับกระทู้

ข้อมูลกระทู้

Users Browsing this Thread

ในขณะนี้มี 1 ท่านดูกระทู้อยู่. (0 สมาชิกและ 1 ผู้เยี่ยมชม)

     

กฎการโพสต์ข้อความ

  • ท่าน ไม่สามารถ ตั้งกระทู้ใหม่ได้
  • ท่าน ไม่สามารถ ตอบกระทู้ได้
  • ท่าน ไม่สามารถ แนบไฟล์ได้
  • ท่าน ไม่สามารถ แก้ไขข้อความโพสต์ได้
  • BB code สถานะ เปิด
  • Smilies สถานะ เปิด
  • [IMG] สถานะ เปิด
  • HTML สถานะ ปิด