+ ตอบกลับกระทู้
สรุปผลการค้นหา 1 ถึง 2 จากทั้งหมด 2
  1. #1
    Administrators รูปส่วนตัว Duckload.us
    สมัครเมื่อ
    Dec 2010
    โพสต์
    122,358
    Thanks
    7
    Thanked 127,640 Times in 56,899 Posts

    Thumbs up [ฝรั่ง]-BOSS LEVEL (2021)-[Soundtrack บรรยายไทย google)] **ย้อนเวลาไล่ล่าฆ่าซ้ำ หนังใหม่ยังไม่มีชื่อไทย ไม่เข้าฉายในโรง แอ็คชั่นไซไฟ Time Loop**




    ประเภท : Science-Fiction, Mystery and Thriller, Action (ภาพยนตร์วิทยาศาสตร์ ลึกลับและระทึกขวัญ และบู๊ )
    กำกับการแสดง : Joe Carnahan
    ดารานำแสดง : Frank Grillo, Mel Gibson, Annabelle Wallis, Michelle Yeoh, Naomi Watts......


    Boss Level 2021 ภาพยนตร์แอ็คชั่นแนววิทยาศาสตร์ ลึกลับและระทึกขวัญของอเมริกัน ปนตลกเบาสมองเล็กน้อย
    หนังเกี่ยวกับ Time Loop ที่นักฟิสิกส์เชื่อว่า มนุษย์อาจจะเดินทางย้อนเวลากลับไปที่เดิม ซ้ำ ณ เวลาเดิมได้
    นักวิจารณ์ชาวต่างชาติส่วนใหญ่บอกว่าหนังเรื่องนี้ Highly Recommended. แนะนำให้ดูเป็นอย่างยิ่ง

    อดีตเจ้าหน้าที่หน่วยรบพิเศษ รอย พัลเวอร์ (แฟรงค์ กริลโล) ติดอยู่ในห้วงเวลา (Time Loop)
    ทำไมเมื่อเขาถูกฆ่าถึงกลับมามีชีวิตในวันเดียวกัน คนร้ายฆ่าเขาทำไม เขาจะหยุดมันได้อย่างไร?
    บ่วงเวลาที่วนซ้ำแล้วซ้ำเล่าในวันที่เขาถูกเหล่าคนร้ าย (เมล กิ๊บสัน) ฆาตกรรมซ้ำ ๆ ในเวลาเดิม
    เขาได้พยายามหาวิธีเอาตัวรอดจากความตายที่ซ้ำซากจนถึ งจุดจุดหนึ่ง แต่กลับไม่สามารถไปต่อได้

    ทุกวันที่เขาตายมันแตกต่างไม่เหมือนกัน ทั้งคนร้ายมากมายที่พยายามฆ่าเขาและวิธีการฆ่าหลากหล าย
    บางครั้งเขาก็รอดชีวิตจากการลอบสังหาร แล้วทำไมท้ายที่สุดมักถูกฆาตกรรมในอีกไม่กี่ชั่วโมงต ่อมา

    พัลเวอร์ต้องพยายามหาเบาะแสเกี่ยวกับโครงการลับของรั ฐบาล ที่อาจจะไขปริศนาเบื้องหลังการตายของเขา
    ซึ่งน่าจะมีสาเหตุเกี่ยวข้องกับภรรยาเก่าของเขา (นาโอมิ วัตต์) และเมล กิ๊บสัน เจ้านายตัวร้ายของเธอ

    ซับไทยแปลจากภาษาอังกฤษ โดย google ทำเองกับมือ ไม่มีเวลาปรับแก้ต้นฉบับ ภาษาก็จะดูแปลก ๆ เช่นนั้นเอง.

    Format : Matroska
    Format version : Version 4
    File size : 3.46 GiB
    Duration : 1 h 40 min
    Overall bit rate : 4 924 kb/s
    Movie name : Boss.Level.2020.1080p.WEB-DL.DD5.1.H264-FGT
    Encoded date : UTC 2021-01-09 15:48:32
    Writing application : mkvmerge v52.0.0 ('Secret For The Mad') 64-bit
    Writing library : libebml v1.4.1 + libmatroska v1.6.2
    Cover : Yes
    Attachments : small_cover.jpg / small_cover_land.jpg / cover.jpg / cover_land.jpg

    Video
    ID : 1
    Format : AVC
    Format/Info : Advanced Video Codec
    Format profile : [email protected]
    Format settings : CABAC / 5 Ref Frames
    Format settings, CABAC : Yes
    Format settings, Reference frames : 5 frames
    Codec ID : V_MPEG4/ISO/AVC
    Duration : 1 h 40 min
    Bit rate : 4 538 kb/s
    Width : 1 916 pixels
    Height : 800 pixels
    Display aspect ratio : 2.40:1
    Frame rate mode : Constant
    Frame rate : 24.000 FPS
    Color space : YUV
    Chroma subsampling : 4:2:0
    Bit depth : 8 bits
    Scan type : Progressive
    Bits/(Pixel*Frame) : 0.123
    Stream size : 3.19 GiB (92%)
    Title : English
    Language : English
    Default : Yes
    Forced : No
    Color range : Limited
    Color primaries : BT.709
    Transfer characteristics : BT.709
    Matrix coefficients : BT.709

    Audio
    ID : 2
    Format : AC-3
    Format/Info : Audio Coding 3
    Commercial name : Dolby Digital
    Codec ID : A_AC3
    Duration : 1 h 40 min
    Bit rate mode : Constant
    Bit rate : 384 kb/s
    Channel(s) : 6 channels
    Channel layout : L R C LFE Ls Rs
    Sampling rate : 48.0 kHz
    Frame rate : 31.250 FPS (1536 SPF)
    Compression mode : Lossy
    Stream size : 276 MiB (8%)
    Title : English
    Language : English
    Service kind : Complete Main
    Default : Yes
    Forced : No

    Text #1
    ID : 3
    Format : ASS
    Codec ID : S_TEXT/ASS
    Codec ID/Info : Advanced Sub Station Alpha
    Duration : 1 h 33 min
    Bit rate : 186 b/s
    Count of elements : 1137
    Compression mode : Lossless
    Stream size : 128 KiB (0%)
    Title : Thai
    Language : Thai
    Default : Yes
    Forced : No

    Text #2
    ID : 4
    Format : ASS
    Codec ID : S_TEXT/ASS
    Codec ID/Info : Advanced Sub Station Alpha
    Duration : 1 h 33 min
    Bit rate : 99 b/s
    Count of elements : 1137
    Compression mode : Lossless
    Stream size : 68.1 KiB (0%)
    Title : English
    Language : English
    Default : No
    Forced : No

    Text #3
    ID : 5
    Format : UTF-8
    Codec ID : S_TEXT/UTF8
    Codec ID/Info : UTF-8 Plain Text
    Duration : 1 h 30 min
    Bit rate : 70 b/s
    Count of elements : 1135
    Stream size : 46.7 KiB (0%)
    Title : Spanish
    Language : Spanish
    Default : No
    Forced : No








    Download:cornfile
    http://cornfile.com/jd42rov6d1eh
    Download:filecondo
    http://www.filecondo.com/dl.php?f=Gc11dd1KYR0s

  2. #2
    Senior Member
    สมัครเมื่อ
    Jul 2013
    โพสต์
    1,618
    Thanks
    0
    Thanked 0 Times in 0 Posts
    ขอบุคณครับ ตอนนี้ยังโหลดไม่ได้ พรุง่นี้เช้ามาใหม่

+ ตอบกลับกระทู้

ข้อมูลกระทู้

Users Browsing this Thread

ในขณะนี้มี 1 ท่านดูกระทู้อยู่. (0 สมาชิกและ 1 ผู้เยี่ยมชม)

     

กฎการโพสต์ข้อความ

  • ท่าน ไม่สามารถ ตั้งกระทู้ใหม่ได้
  • ท่าน ไม่สามารถ ตอบกระทู้ได้
  • ท่าน ไม่สามารถ แนบไฟล์ได้
  • ท่าน ไม่สามารถ แก้ไขข้อความโพสต์ได้
  • BB code สถานะ เปิด
  • Smilies สถานะ เปิด
  • [IMG] สถานะ เปิด
  • HTML สถานะ ปิด