+ ตอบกลับกระทู้
สรุปผลการค้นหา 1 ถึง 5 จากทั้งหมด 5
  1. #1
    Administrators รูปส่วนตัว Duckload.us
    สมัครเมื่อ
    Dec 2010
    โพสต์
    122,358
    Thanks
    7
    Thanked 127,638 Times in 56,897 Posts

    Thumbs up [จีน]-Soul Snatcher (2020) บัณฑิตหน้าใสกับนายจิ้งจอก-WEB-DL.H.264.1080p. [Modified]-[พากย์ไทยโรง]



    เรื่องย่อSOUL SNATCHER บัณฑิตหน้าใสกับนายจิ้งจอก

    ไป่ฉีซาน จิ้งจอกหนุ่มผู้เลื่องชื่อได้ถูกมอบหมายภารกิจท้าทาย สำคัญ ปลอมตัวเป็นชายหนุ่มเพื่อตามหาไข่มุกวิญญาณ ภารกิจครั้งนี้นับเป็นบททดสอบสำคัญของเหล่านักเรียนจ ิ้งจอก ที่จะก้าวขึ้นไปสู่ขั้นสูงสุดเพื่อบรรลุความเป็นอมตะ ในดินแดนที่เขาอยู่ เขาจึงตัดสินใจเดินทางไปยังโลกมนุษย์เพื่อค้นหาไข่มุ กวิเศษ ด้วยความบังเอิญของโลกคู่ขนานที่โคจรมาทำให้ ไป่ฉีซาน พบกับ หวังซี่จิน บัณฑิตหนุ่มผู้แสนซื่อในเมืองมนุษย์ การพบกันครั้งนี้มันทำให้เขาทั้งสองคนกลายเป็นเพื่อน สนิทที่ต้องมาร่วมผจญภัยไปด้วยกัน โดยมีเป้าหมายเดียวกันคือต้องการกำจัดวิญญาณชั่วร้าย และสัตว์ร้ายในตำนานให้หมดสิ้น แต่ภารกิจนี้มันไม่ได้ง่ายดายอย่างที่พวกเขาคิด การเดินทางข้ามน้ำข้ามทะเลและผจญภัยไปกับภัยร้ายที่ม องไม่เห็นภารกิจใหญ่หลวงครั้งนี้จะต้องแลกด้วยอะไร? อะไรคือกุญแจสำคัญที่จะทำให้เขาทั้งคู่จะฝ่าฟันไปได้ หรือไม่?

    Format : MPEG-4
    Format profile : Base Media
    Codec ID : isom (isom/iso2/avc1/mp41)
    File size : 4.48 GiB
    Duration : 2 h 4 min
    Overall bit rate mode : Variable
    Overall bit rate : 5 157 kb/s
    Writing application : Lavf58.45.100

    Video
    ID : 1
    Format : AVC
    Format/Info : Advanced Video Codec
    Format profile : [email protected]
    Format settings : CABAC / 3 Ref Frames
    Format settings, CABAC : Yes
    Format settings, Reference frames : 3 frames
    Format settings, GOP : M=1, N=73
    Codec ID : avc1
    Codec ID/Info : Advanced Video Coding
    Duration : 2 h 4 min
    Bit rate mode : Variable
    Bit rate : 4 943 kb/s
    Maximum bit rate : 15.0 Mb/s
    Width : 1 920 pixels
    Height : 800 pixels
    Display aspect ratio : 2.40:1
    Frame rate : 24.000 FPS
    Color space : YUV
    Chroma subsampling : 4:2:0
    Bit depth : 8 bits
    Scan type : Progressive
    Bits/(Pixel*Frame) : 0.134
    Stream size : 4.29 GiB (96%)
    Tagged date : UTC 2021-01-08 16:45:59
    Codec configuration box : avcC

    Audio
    ID : 2
    Format : AAC LC
    Format/Info : Advanced Audio Codec Low Complexity
    Codec ID : mp4a-40-2
    Duration : 2 h 4 min
    Bit rate mode : Constant
    Bit rate : 210 kb/s
    Channel(s) : 2 channels
    Channel layout : L R
    Sampling rate : 44.1 kHz
    Frame rate : 43.066 FPS (1024 SPF)
    Compression mode : Lossy
    Stream size : 187 MiB (4%)
    Default : Yes
    Alternate group : 1
    Tagged date : UTC 2021-01-08 16:45:59





    4.5 GB
    Download:cornfile
    http://cornfile.com/3ycok5si8bel
    Download:filecondo
    http://www.filecondo.com/dl.php?f=N0fe811KYW9t

    2.0 GB
    Download:cornfile
    http://cornfile.com/lq39khal8qbd
    Download:filecondo
    http://www.filecondo.com/dl.php?f=867b7d1KZb3o

  2. The Following User Says Thank You to Duckload.us For This Useful Post:

    Wesker_TOT (01-12-2021)

  3. #2
    Senior Member
    สมัครเมื่อ
    Aug 2012
    โพสต์
    205
    Thanks
    0
    Thanked 0 Times in 0 Posts
    ขอบคุณมากครับ

  4. #3
    Senior Member
    สมัครเมื่อ
    Jul 2013
    โพสต์
    316
    Thanks
    843
    Thanked 0 Times in 0 Posts
    ขอบคุณมากๆ ค่าาา

  5. #4
    Senior Member
    สมัครเมื่อ
    Dec 2013
    โพสต์
    2,543
    Thanks
    4,465
    Thanked 0 Times in 0 Posts
    ขอบคุณนะครับ...

  6. #5
    Senior Member
    สมัครเมื่อ
    Oct 2013
    โพสต์
    1,839
    Thanks
    0
    Thanked 0 Times in 0 Posts
    ขอบคุณครับ

+ ตอบกลับกระทู้

ข้อมูลกระทู้

Users Browsing this Thread

ในขณะนี้มี 1 ท่านดูกระทู้อยู่. (0 สมาชิกและ 1 ผู้เยี่ยมชม)

     

กฎการโพสต์ข้อความ

  • ท่าน ไม่สามารถ ตั้งกระทู้ใหม่ได้
  • ท่าน ไม่สามารถ ตอบกระทู้ได้
  • ท่าน ไม่สามารถ แนบไฟล์ได้
  • ท่าน ไม่สามารถ แก้ไขข้อความโพสต์ได้
  • BB code สถานะ เปิด
  • Smilies สถานะ เปิด
  • [IMG] สถานะ เปิด
  • HTML สถานะ ปิด