+ ตอบกลับกระทู้
สรุปผลการค้นหา 1 ถึง 2 จากทั้งหมด 2
  1. #1
    Administrators รูปส่วนตัว Duckload.us
    สมัครเมื่อ
    Dec 2010
    โพสต์
    122,358
    Thanks
    7
    Thanked 127,641 Times in 56,900 Posts

    Thumbs up [ฝรั่ง]-ใหม่!!! หนังรางวัลการันตี พร้อมบรรยายไทยดีๆ ชัดๆ *** Pieces of a Woman -- ยากแท้ หยั่งไหว ใจสตรี **** โดย ดีเจ อาท -WEB-DL.H.264.1080p. [Modified]-[Soundtrack บรรยายไทย]



    Pieces of a Woman 2020 -- ยากแท้ หยั่งไหว ใจสตรี

    GENERAL INFO:
    Genre: Drama
    Director: Korné l Mundruczó
    Stars: Vanessa Kirby, Shia LaBeouf, Ellen Burstyn, Molly Parker, Sarah Snook
    Plot: A heartbreaking home birth leaves a woman grappling with the profound emotional fallout, isolated from her partner and family by a chasm of grief.

    MEDIAINFO:
    Container = Matroska (mkv)
    Duration = 02:07:40.448
    Filesize = 6 GiB
    Overall bitrate = 7150 kb/s

    Video:
    Codec info = AVC [email protected] | V_MPEG4/ISO/AVC
    Resolution = 1920x1080
    Display AR = 1.778 | 16:9
    Bitrate = 6 506 kb/s
    Framerate = CFR 24.000
    Color space = YUV
    Chroma subsampling = 4:2:0
    Encoder = x264 - core 148 r2722 1b0121b

    Audio:
    Codec info = E-AC-3 | A_EAC3
    Channels = 6
    Bitrate = CBR 640 kb/s
    Samplerate = 48.0 kHz
    Language = English

    Included subtitles:
    Arabic, Portuguese, Czech, Danish, German, Greek, English, Spanish, Finnish, French, Hebrew, Croatian, Hungarian, Indonesian, Italian, Japanese, Korean, Malay, Dutch, Norwegian, Bokmal, Polish, Portuguese, Romanian, Russian, Spanish, Swedish, Thai, Turkish, Vietnamese, Chinese

    Code:
    Format                                   : Matroska
    Format version                           : Version 4
    File size                                : 6.38 GiB
    Duration                                 : 2 h 7 min
    Overall bit rate mode                    : Variable
    Overall bit rate                         : 7 150 kb/s
    Encoded date                             : UTC 2021-01-07 08:01:33
    Writing application                      : mkvmerge v50.0.0 ('Awakenings') 64-bit
    Writing library                          : libebml v1.4.0 + libmatroska v1.6.2
    
    Video
    ID                                       : 1
    Format                                   : AVC
    Format/Info                              : Advanced Video Codec
    Format profile                           : [email protected]
    Format settings                          : CABAC / 4 Ref Frames
    Format settings, CABAC                   : Yes
    Format settings, Reference frames        : 4 frames
    Codec ID                                 : V_MPEG4/ISO/AVC
    Duration                                 : 2 h 7 min
    Bit rate mode                            : Variable
    Bit rate                                 : 6 506 kb/s
    Maximum bit rate                         : 20.0 Mb/s
    Width                                    : 1 920 pixels
    Height                                   : 1 080 pixels
    Display aspect ratio                     : 16:9
    Frame rate mode                          : Constant
    Frame rate                               : 24.000 FPS
    Color space                              : YUV
    Chroma subsampling                       : 4:2:0
    Bit depth                                : 8 bits
    Scan type                                : Progressive
    Bits/(Pixel*Frame)                       : 0.131
    Stream size                              : 5.80 GiB (91%)
    Writing library                          : x264 core 148 r2722 1b0121b
    Encoding settings                        : cabac=1 / ref=4 / deblock=1:0:0 / analyse=0x3:0x111 / me=umh / subme=10 / psy=1 / psy_rd=1.00:0.00 / mixed_ref=1 / me_range=120 / chroma_me=1 / trellis=2 / 8x8dct=1 / cqm=0 / deadzone=21,11 / fast_pskip=1 / chroma_qp_offset=-2 / threads=6 / lookahead_threads=1 / sliced_threads=0 / nr=0 / decimate=1 / interlaced=0 / bluray_compat=0 / stitchable=1 / constrained_intra=0 / bframes=16 / b_pyramid=2 / b_adapt=2 / b_bias=0 / direct=3 / weightb=1 / open_gop=0 / weightp=2 / keyint=240 / keyint_min=121 / scenecut=0 / intra_refresh=0 / rc_lookahead=240 / rc=crf / mbtree=1 / crf=16.0 / qcomp=0.50 / qpmin=6 / qpmax=51 / qpstep=4 / vbv_maxrate=20000 / vbv_bufsize=25000 / crf_max=0.0 / nal_hrd=vbr / filler=0 / ip_ratio=1.40 / aq=1:0.80
    Default                                  : Yes
    Forced                                   : No
    
    Audio
    ID                                       : 2
    Format                                   : E-AC-3
    Format/Info                              : Enhanced AC-3
    Commercial name                          : Dolby Digital Plus
    Codec ID                                 : A_EAC3
    Duration                                 : 2 h 7 min
    Bit rate mode                            : Constant
    Bit rate                                 : 640 kb/s
    Channel(s)                               : 6 channels
    Channel layout                           : L R C LFE Ls Rs
    Sampling rate                            : 48.0 kHz
    Frame rate                               : 31.250 FPS (1536 SPF)
    Compression mode                         : Lossy
    Stream size                              : 584 MiB (9%)
    Title                                    : English
    Language                                 : English
    Service kind                             : Complete Main
    Default                                  : No
    Forced                                   : No
    
    Text #1
    ID                                       : 3
    Format                                   : UTF-8
    Codec ID                                 : S_TEXT/UTF8
    Codec ID/Info                            : UTF-8 Plain Text
    Duration                                 : 2 h 6 min
    Bit rate                                 : 88 b/s
    Count of elements                        : 1398
    Stream size                              : 81.8 KiB (0%)
    Title                                    : Arabic
    Language                                 : Arabic
    Default                                  : No
    Forced                                   : No
    
    Text #2
    ID                                       : 4
    Format                                   : UTF-8
    Codec ID                                 : S_TEXT/UTF8
    Codec ID/Info                            : UTF-8 Plain Text
    Duration                                 : 2 h 6 min
    Bit rate                                 : 42 b/s
    Count of elements                        : 1372
    Stream size                              : 39.5 KiB (0%)
    Title                                    : Brazilian Portuguese
    Language                                 : Portuguese
    Default                                  : No
    Forced                                   : No
    
    Text #3
    ID                                       : 5
    Format                                   : UTF-8
    Codec ID                                 : S_TEXT/UTF8
    Codec ID/Info                            : UTF-8 Plain Text
    Duration                                 : 2 h 6 min
    Bit rate                                 : 43 b/s
    Count of elements                        : 1349
    Stream size                              : 39.8 KiB (0%)
    Title                                    : Czech
    Language                                 : Czech
    Default                                  : No
    Forced                                   : No
    
    Text #4
    ID                                       : 6
    Format                                   : UTF-8
    Codec ID                                 : S_TEXT/UTF8
    Codec ID/Info                            : UTF-8 Plain Text
    Duration                                 : 2 h 6 min
    Bit rate                                 : 42 b/s
    Count of elements                        : 1331
    Stream size                              : 39.0 KiB (0%)
    Title                                    : Danish
    Language                                 : Danish
    Default                                  : No
    Forced                                   : No
    
    Text #5
    ID                                       : 7
    Format                                   : UTF-8
    Codec ID                                 : S_TEXT/UTF8
    Codec ID/Info                            : UTF-8 Plain Text
    Duration                                 : 2 h 6 min
    Bit rate                                 : 41 b/s
    Count of elements                        : 1380
    Stream size                              : 38.7 KiB (0%)
    Title                                    : German
    Language                                 : German
    Default                                  : No
    Forced                                   : No
    
    Text #6
    ID                                       : 8
    Format                                   : UTF-8
    Codec ID                                 : S_TEXT/UTF8
    Codec ID/Info                            : UTF-8 Plain Text
    Duration                                 : 2 h 6 min
    Bit rate                                 : 75 b/s
    Count of elements                        : 1394
    Stream size                              : 70.0 KiB (0%)
    Title                                    : Greek
    Language                                 : Greek
    Default                                  : No
    Forced                                   : No
    
    Text #7
    ID                                       : 9
    Format                                   : UTF-8
    Codec ID                                 : S_TEXT/UTF8
    Codec ID/Info                            : UTF-8 Plain Text
    Duration                                 : 1 h 57 min
    Bit rate                                 : 63 b/s
    Count of elements                        : 1567
    Stream size                              : 54.6 KiB (0%)
    Title                                    : English [CC]
    Language                                 : English
    Default                                  : No
    Forced                                   : No
    
    Text #8
    ID                                       : 10
    Format                                   : UTF-8
    Codec ID                                 : S_TEXT/UTF8
    Codec ID/Info                            : UTF-8 Plain Text
    Duration                                 : 2 h 6 min
    Bit rate                                 : 43 b/s
    Count of elements                        : 1382
    Stream size                              : 40.3 KiB (0%)
    Title                                    : European Spanish
    Language                                 : Spanish
    Default                                  : No
    Forced                                   : No
    
    Text #9
    ID                                       : 11
    Format                                   : UTF-8
    Codec ID                                 : S_TEXT/UTF8
    Codec ID/Info                            : UTF-8 Plain Text
    Duration                                 : 2 h 6 min
    Bit rate                                 : 39 b/s
    Count of elements                        : 1234
    Stream size                              : 36.3 KiB (0%)
    Title                                    : Finnish
    Language                                 : Finnish
    Default                                  : No
    Forced                                   : No
    
    Text #10
    ID                                       : 12
    Format                                   : UTF-8
    Codec ID                                 : S_TEXT/UTF8
    Codec ID/Info                            : UTF-8 Plain Text
    Duration                                 : 2 h 6 min
    Bit rate                                 : 46 b/s
    Count of elements                        : 1311
    Stream size                              : 42.6 KiB (0%)
    Title                                    : French
    Language                                 : French
    Default                                  : No
    Forced                                   : No
    
    Text #11
    ID                                       : 13
    Format                                   : UTF-8
    Codec ID                                 : S_TEXT/UTF8
    Codec ID/Info                            : UTF-8 Plain Text
    Duration                                 : 2 h 6 min
    Bit rate                                 : 75 b/s
    Count of elements                        : 1398
    Stream size                              : 69.5 KiB (0%)
    Title                                    : Hebrew
    Language                                 : Hebrew
    Default                                  : No
    Forced                                   : No
    
    Text #12
    ID                                       : 14
    Format                                   : UTF-8
    Codec ID                                 : S_TEXT/UTF8
    Codec ID/Info                            : UTF-8 Plain Text
    Duration                                 : 2 h 6 min
    Bit rate                                 : 39 b/s
    Count of elements                        : 1380
    Stream size                              : 36.7 KiB (0%)
    Title                                    : Croatian
    Language                                 : Croatian
    Default                                  : No
    Forced                                   : No
    
    Text #13
    ID                                       : 15
    Format                                   : UTF-8
    Codec ID                                 : S_TEXT/UTF8
    Codec ID/Info                            : UTF-8 Plain Text
    Duration                                 : 2 h 6 min
    Bit rate                                 : 44 b/s
    Count of elements                        : 1390
    Stream size                              : 40.8 KiB (0%)
    Title                                    : Hungarian
    Language                                 : Hungarian
    Default                                  : No
    Forced                                   : No
    
    Text #14
    ID                                       : 16
    Format                                   : UTF-8
    Codec ID                                 : S_TEXT/UTF8
    Codec ID/Info                            : UTF-8 Plain Text
    Duration                                 : 2 h 6 min
    Bit rate                                 : 42 b/s
    Count of elements                        : 1418
    Stream size                              : 39.5 KiB (0%)
    Title                                    : Indonesian
    Language                                 : Indonesian
    Default                                  : No
    Forced                                   : No
    
    Text #15
    ID                                       : 17
    Format                                   : UTF-8
    Codec ID                                 : S_TEXT/UTF8
    Codec ID/Info                            : UTF-8 Plain Text
    Duration                                 : 2 h 6 min
    Bit rate                                 : 44 b/s
    Count of elements                        : 1397
    Stream size                              : 41.2 KiB (0%)
    Title                                    : Italian
    Language                                 : Italian
    Default                                  : No
    Forced                                   : No
    
    Text #16
    ID                                       : 18
    Format                                   : UTF-8
    Codec ID                                 : S_TEXT/UTF8
    Codec ID/Info                            : UTF-8 Plain Text
    Duration                                 : 2 h 6 min
    Bit rate                                 : 40 b/s
    Count of elements                        : 1359
    Stream size                              : 37.6 KiB (0%)
    Title                                    : Japanese
    Language                                 : Japanese
    Default                                  : No
    Forced                                   : No
    
    Text #17
    ID                                       : 19
    Format                                   : UTF-8
    Codec ID                                 : S_TEXT/UTF8
    Codec ID/Info                            : UTF-8 Plain Text
    Duration                                 : 2 h 6 min
    Bit rate                                 : 57 b/s
    Count of elements                        : 1473
    Stream size                              : 53.3 KiB (0%)
    Title                                    : Korean
    Language                                 : Korean
    Default                                  : No
    Forced                                   : No
    
    Text #18
    ID                                       : 20
    Format                                   : UTF-8
    Codec ID                                 : S_TEXT/UTF8
    Codec ID/Info                            : UTF-8 Plain Text
    Duration                                 : 2 h 6 min
    Bit rate                                 : 42 b/s
    Count of elements                        : 1375
    Stream size                              : 39.5 KiB (0%)
    Title                                    : Malay
    Language                                 : Malay
    Default                                  : No
    Forced                                   : No
    
    Text #19
    ID                                       : 21
    Format                                   : UTF-8
    Codec ID                                 : S_TEXT/UTF8
    Codec ID/Info                            : UTF-8 Plain Text
    Duration                                 : 2 h 6 min
    Bit rate                                 : 39 b/s
    Count of elements                        : 1285
    Stream size                              : 36.1 KiB (0%)
    Title                                    : Dutch
    Language                                 : Dutch
    Default                                  : No
    Forced                                   : No
    
    Text #20
    ID                                       : 22
    Format                                   : UTF-8
    Codec ID                                 : S_TEXT/UTF8
    Codec ID/Info                            : UTF-8 Plain Text
    Duration                                 : 2 h 6 min
    Bit rate                                 : 39 b/s
    Count of elements                        : 1336
    Stream size                              : 36.3 KiB (0%)
    Title                                    : Norwegian Bokmal
    Language                                 : Norwegian Bokmal
    Default                                  : No
    Forced                                   : No
    
    Text #21
    ID                                       : 23
    Format                                   : UTF-8
    Codec ID                                 : S_TEXT/UTF8
    Codec ID/Info                            : UTF-8 Plain Text
    Duration                                 : 2 h 6 min
    Bit rate                                 : 42 b/s
    Count of elements                        : 1365
    Stream size                              : 39.4 KiB (0%)
    Title                                    : Polish
    Language                                 : Polish
    Default                                  : No
    Forced                                   : No
    
    Text #22
    ID                                       : 24
    Format                                   : UTF-8
    Codec ID                                 : S_TEXT/UTF8
    Codec ID/Info                            : UTF-8 Plain Text
    Duration                                 : 2 h 6 min
    Bit rate                                 : 45 b/s
    Count of elements                        : 1388
    Stream size                              : 41.7 KiB (0%)
    Title                                    : Portuguese
    Language                                 : Portuguese
    Default                                  : No
    Forced                                   : No
    
    Text #23
    ID                                       : 25
    Format                                   : UTF-8
    Codec ID                                 : S_TEXT/UTF8
    Codec ID/Info                            : UTF-8 Plain Text
    Duration                                 : 2 h 6 min
    Bit rate                                 : 52 b/s
    Count of elements                        : 1402
    Stream size                              : 48.3 KiB (0%)
    Title                                    : Romanian
    Language                                 : Romanian
    Default                                  : No
    Forced                                   : No
    
    Text #24
    ID                                       : 26
    Format                                   : UTF-8
    Codec ID                                 : S_TEXT/UTF8
    Codec ID/Info                            : UTF-8 Plain Text
    Duration                                 : 2 h 6 min
    Bit rate                                 : 69 b/s
    Count of elements                        : 1398
    Stream size                              : 64.7 KiB (0%)
    Title                                    : Russian
    Language                                 : Russian
    Default                                  : No
    Forced                                   : No
    
    Text #25
    ID                                       : 27
    Format                                   : UTF-8
    Codec ID                                 : S_TEXT/UTF8
    Codec ID/Info                            : UTF-8 Plain Text
    Duration                                 : 2 h 6 min
    Bit rate                                 : 45 b/s
    Count of elements                        : 1374
    Stream size                              : 42.0 KiB (0%)
    Title                                    : Spanish
    Language                                 : Spanish
    Default                                  : No
    Forced                                   : No
    
    Text #26
    ID                                       : 28
    Format                                   : UTF-8
    Codec ID                                 : S_TEXT/UTF8
    Codec ID/Info                            : UTF-8 Plain Text
    Duration                                 : 2 h 6 min
    Bit rate                                 : 45 b/s
    Count of elements                        : 1333
    Stream size                              : 41.8 KiB (0%)
    Title                                    : Swedish
    Language                                 : Swedish
    Default                                  : No
    Forced                                   : No
    
    Text #27
    ID                                       : 29
    Format                                   : UTF-8
    Codec ID                                 : S_TEXT/UTF8
    Codec ID/Info                            : UTF-8 Plain Text
    Duration                                 : 2 h 6 min
    Bit rate                                 : 123 b/s
    Count of elements                        : 1414
    Stream size                              : 114 KiB (0%)
    Title                                    : Thai
    Language                                 : Thai
    Default                                  : No
    Forced                                   : No
    
    Text #28
    ID                                       : 30
    Format                                   : UTF-8
    Codec ID                                 : S_TEXT/UTF8
    Codec ID/Info                            : UTF-8 Plain Text
    Duration                                 : 2 h 6 min
    Bit rate                                 : 45 b/s
    Count of elements                        : 1394
    Stream size                              : 41.8 KiB (0%)
    Title                                    : Turkish
    Language                                 : Turkish
    Default                                  : No
    Forced                                   : No
    
    Text #29
    ID                                       : 31
    Format                                   : UTF-8
    Codec ID                                 : S_TEXT/UTF8
    Codec ID/Info                            : UTF-8 Plain Text
    Duration                                 : 2 h 6 min
    Bit rate                                 : 64 b/s
    Count of elements                        : 1414
    Stream size                              : 60.0 KiB (0%)
    Title                                    : Vietnamese
    Language                                 : Vietnamese
    Default                                  : No
    Forced                                   : No
    
    Text #30
    ID                                       : 32
    Format                                   : UTF-8
    Codec ID                                 : S_TEXT/UTF8
    Codec ID/Info                            : UTF-8 Plain Text
    Duration                                 : 2 h 6 min
    Bit rate                                 : 53 b/s
    Count of elements                        : 1401
    Stream size                              : 49.4 KiB (0%)
    Title                                    : Chinese Simplified
    Language                                 : Chinese
    Default                                  : No
    Forced                                   : No
    
    Text #31
    ID                                       : 33
    Format                                   : UTF-8
    Codec ID                                 : S_TEXT/UTF8
    Codec ID/Info                            : UTF-8 Plain Text
    Duration                                 : 2 h 6 min
    Bit rate                                 : 48 b/s
    Count of elements                        : 1415
    Stream size                              : 44.8 KiB (0%)
    Title                                    : Chinese Traditional
    Language                                 : Chinese
    Default                                  : No
    Forced                                   : No




    Download:cornfile
    http://cornfile.com/grr4qun12055
    Download:filecondo
    http://www.filecondo.com/dl.php?f=A9f1a41KZb1R

  2. #2
    Senior Member
    สมัครเมื่อ
    Jul 2013
    โพสต์
    1,618
    Thanks
    0
    Thanked 0 Times in 0 Posts
    ขอบคุณครับ

+ ตอบกลับกระทู้

ข้อมูลกระทู้

Users Browsing this Thread

ในขณะนี้มี 1 ท่านดูกระทู้อยู่. (0 สมาชิกและ 1 ผู้เยี่ยมชม)

     

กฎการโพสต์ข้อความ

  • ท่าน ไม่สามารถ ตั้งกระทู้ใหม่ได้
  • ท่าน ไม่สามารถ ตอบกระทู้ได้
  • ท่าน ไม่สามารถ แนบไฟล์ได้
  • ท่าน ไม่สามารถ แก้ไขข้อความโพสต์ได้
  • BB code สถานะ เปิด
  • Smilies สถานะ เปิด
  • [IMG] สถานะ เปิด
  • HTML สถานะ ปิด