ไอ้หนุ่มพเนจรสานตำนานหมัดเมา เพื่อล้างแค้นให้อาจารย์ ชายหนุ่มผู้ชื่นชอบการดื่มสุรา ฝึกปรือฝีมือพร้อมเอาชนะจอมโจรผู้ทรงพลัง ในการต่อสู้นัดชี้ชะตา
General
Unique ID : 58624950701268062408433213206500143613 (0x2C1AC13ADC1DF71851C6DE31BB92F1FD)
Complete name : E:The.Young.Vagabond.(1985).ไอ้หนุ่มฤทธิ์ขอทาน.mkv
Format : Matroska
Format version : Version 4
File size : 2.28 GiB
Duration : 1 h 25 min
Overall bit rate mode : Variable
Overall bit rate : 3 824 kb/s
Encoded date : UTC 2020-02-28 13:19:23
Writing application : mkvmerge v43.0.0 ('The Quartermaster') 64-bit
Writing library : libebml v1.3.10 + libmatroska v1.5.2

Video
ID : 1
Format : AVC
Format/Info : Advanced Video Codec
Format profile : [email protected]
Format settings : CABAC / 1 Ref Frames
Format settings, CABAC : Yes
Format settings, Reference frames : 1 frame
Codec ID : V_MPEG4/ISO/AVC
Duration : 1 h 25 min
Bit rate mode : Variable
Bit rate : 3 651 kb/s
Maximum bit rate : 11.2 Mb/s
Width : 1 920 pixels
Height : 800 pixels
Display aspect ratio : 2.40:1
Frame rate mode : Constant
Frame rate : 25.000 FPS
Color space : YUV
Chroma subsampling : 4:2:0
Bit depth : 8 bits
Scan type : Progressive
Bits/(Pixel*Frame) : 0.095
Stream size : 2.18 GiB (95%)
Default : Yes
Forced : No

Audio
ID : 2
Format : E-AC-3
Format/Info : Enhanced AC-3
Commercial name : Dolby Digital Plus
Codec ID : A_EAC3
Duration : 1 h 25 min
Bit rate mode : Constant
Bit rate : 128 kb/s
Channel(s) : 2 channels
Channel layout : L R
Sampling rate : 48.0 kHz
Frame rate : 31.250 FPS (1536 SPF)
Compression mode : Lossy
Stream size : 78.2 MiB (3%)
Title : AC-3 Chinese
Language : Chinese
Service kind : Complete Main
Default : Yes
Forced : No

Text #1
ID : 3
Format : VobSub
Muxing mode : zlib
Codec ID : S_VOBSUB
Codec ID/Info : Picture based subtitle format used on DVDs
Duration : 1 h 24 min
Bit rate : 10.9 kb/s
Count of elements : 1224
Stream size : 6.63 MiB (0%)
Title : Sub Thai 1080p
Language : Thai
Default : No
Forced : No

Text #2
ID : 4
Format : UTF-8
Codec ID : S_TEXT/UTF8
Codec ID/Info : UTF-8 Plain Text
Duration : 1 h 24 min
Bit rate : 122 b/s
Count of elements : 1224
Stream size : 76.1 KiB (0%)
Title : Sub Thai SRT
Language : Thai
Default : No
Forced : No

Text #3
ID : 5
Format : PGS
Muxing mode : zlib
Codec ID : S_HDMV/PGS
Codec ID/Info : Picture based subtitle format used on BDs/HD-DVDs
Duration : 1 h 24 min
Bit rate : 29.8 kb/s
Count of elements : 2448
Stream size : 18.1 MiB (1%)
Title : Sub Thai PGS
Language : Thai
Default : Yes
Forced : No

Text #4
ID : 6
Format : VobSub
Muxing mode : zlib
Codec ID : S_VOBSUB
Codec ID/Info : Picture based subtitle format used on DVDs
Duration : 1 h 19 min
Bit rate : 11.1 kb/s
Count of elements : 1214
Stream size : 6.34 MiB (0%)
Title : Sub English 1080p
Language : English
Default : No
Forced : No

Text #5
ID : 7
Format : UTF-8
Codec ID : S_TEXT/UTF8
Codec ID/Info : UTF-8 Plain Text
Duration : 1 h 19 min
Bit rate : 54 b/s
Count of elements : 1214
Stream size : 32.0 KiB (0%)
Title : Sub English SRT
Language : English
Default : No
Forced : No

Text #6
ID : 8
Format : PGS
Muxing mode : zlib
Codec ID : S_HDMV/PGS
Codec ID/Info : Picture based subtitle format used on BDs/HD-DVDs
Duration : 1 h 19 min
Bit rate : 31.1 kb/s
Count of elements : 2428
Stream size : 17.7 MiB (1%)
Title : Sub English PGS
Language : English
Default : No
Forced : No

http://cornfile.com/fn1nmaevfrz4