+ ตอบกลับกระทู้
สรุปผลการค้นหา 1 ถึง 4 จากทั้งหมด 4
  1. #1
    Administrators รูปส่วนตัว Duckload.us
    สมัครเมื่อ
    Dec 2010
    โพสต์
    122,403
    Thanks
    7
    Thanked 127,669 Times in 56,911 Posts

    Thumbs up [ฝรั่ง]-Sea Fever (2019) ปรสิตฝังร่าง สัตว์ทะเลมรณะ-WEB-DL.H.264.1080p. [Master]-[พากย์ไทย บรรยายไทย]



    Sea Fever เขียนและกำกับโดย Neasa Hardiman นำแสดงโดย Hermione Corfield, Dougray Scott และ Connie Nielsen ภาพยนตร์เรื่องนี้ติดตามลูกเรือของเรือลากอวนจับปลาส ีน้ำตาลแดงซึ่งพบว่าตัวเองถูกคุกคามจากการติดเชื้อปร สิต

    Format : Matroska
    Format version : Version 2
    File size : 2.73 GiB
    Duration : 1 h 28 min
    Overall bit rate mode : Constant
    Overall bit rate : 4 412 kb/s
    Movie name : Sea Fever (2019) ปรสิตฝังร่าง สัตว์ทะเลมรณะ.trim01
    Encoded date : UTC 2021-01-14 04:49:38
    Writing application : DVDFab 11.0.8.5
    Writing library : libebml v1.3.4 + libmatroska v1.4.5

    Video
    ID : 1
    Format : AVC
    Format/Info : Advanced Video Codec
    Format profile : [email protected]
    Format settings : CABAC / 1 Ref Frames
    Format settings, CABAC : Yes
    Format settings, Reference frames : 1 frame
    Format settings, GOP : M=1, N=24
    Codec ID : V_MPEG4/ISO/AVC
    Duration : 1 h 28 min
    Bit rate mode : Constant
    Bit rate : 4 218 kb/s
    Nominal bit rate : 6 166 kb/s
    Width : 1 920 pixels
    Height : 892 pixels
    Display aspect ratio : 2.2:1
    Frame rate mode : Constant
    Frame rate : 24.000 FPS
    Color space : YUV
    Chroma subsampling : 4:2:0
    Bit depth : 8 bits
    Scan type : Progressive
    Bits/(Pixel*Frame) : 0.103
    Stream size : 2.61 GiB (96%)
    Default : Yes
    Forced : No
    Color range : Limited
    Color primaries : BT.709
    Transfer characteristics : BT.709
    Matrix coefficients : BT.709

    Audio
    ID : 2
    Format : AC-3
    Format/Info : Audio Coding 3
    Commercial name : Dolby Digital
    Codec ID : A_AC3
    Duration : 1 h 28 min
    Bit rate mode : Constant
    Bit rate : 192 kb/s
    Channel(s) : 2 channels
    Channel layout : L R
    Sampling rate : 48.0 kHz
    Frame rate : 31.250 FPS (1536 SPF)
    Compression mode : Lossy
    Stream size : 122 MiB (4%)
    Service kind : Complete Main
    Default : Yes
    Forced : No





    Download:cornfile
    http://cornfile.com/76wr83v5di0h
    Download:filecondo
    http://www.filecondo.com/dl.php?f=P23e631KZY90

  2. The Following 4 Users Say Thank You to Duckload.us For This Useful Post:

    noi54 (01-18-2021), sawara (01-17-2021), Tellmon (เมื่อวานนี้), Wesker_TOT (01-15-2021)

  3. #2
    Senior Member
    สมัครเมื่อ
    Dec 2013
    โพสต์
    2,544
    Thanks
    4,466
    Thanked 0 Times in 0 Posts
    ขอบคุณครับ...

  4. #3
    Senior Member
    สมัครเมื่อ
    Jul 2013
    โพสต์
    1,624
    Thanks
    0
    Thanked 0 Times in 0 Posts
    ขอบคุณครับ

  5. #4
    Senior Member
    สมัครเมื่อ
    Dec 2013
    โพสต์
    363
    Thanks
    290
    Thanked 0 Times in 0 Posts
    ขอบคุณครับ...

+ ตอบกลับกระทู้

ข้อมูลกระทู้

Users Browsing this Thread

ในขณะนี้มี 1 ท่านดูกระทู้อยู่. (0 สมาชิกและ 1 ผู้เยี่ยมชม)

     

กฎการโพสต์ข้อความ

  • ท่าน ไม่สามารถ ตั้งกระทู้ใหม่ได้
  • ท่าน ไม่สามารถ ตอบกระทู้ได้
  • ท่าน ไม่สามารถ แนบไฟล์ได้
  • ท่าน ไม่สามารถ แก้ไขข้อความโพสต์ได้
  • BB code สถานะ เปิด
  • Smilies สถานะ เปิด
  • [IMG] สถานะ เปิด
  • HTML สถานะ ปิด