+ ตอบกลับกระทู้
สรุปผลการค้นหา 1 ถึง 2 จากทั้งหมด 2
  1. #1
    Administrators รูปส่วนตัว Duckload.us
    สมัครเมื่อ
    Dec 2010
    โพสต์
    122,403
    Thanks
    7
    Thanked 127,669 Times in 56,911 Posts

    Thumbs up [ฝรั่ง]-[เสียงไทยมาสเตอร์] - Yellow Rose (2020) - [พากย์ไทยมาสเตอร์+อังกฤษ 5.1] [บรรยายไทย+อังกฤษ]-WEB-DL.H.264.1080p. [Modified]-[พากย์ไทย บรรยายไทย]



    วัยรุ่นชาวฟิลิปปินส์จากเมืองเล็ก ๆ
    ในเท็กซัสต่อสู้เพื่อไล่ตามความฝันของเธอในฐานะนักแส ดงเพลงคันทรี
    ในขณะที่ต้องตัดสินใจว่าจะอยู่กับครอบครัวหรือออกจาก บ้านหลังเดียวที่เธอรู้จัก

    Code:
    Format                                   : Matroska
    Format version                           : Version 4
    File size                                : 3.73 GiB
    Duration                                 : 1 h 34 min
    Overall bit rate                         : 5 664 kb/s
    Encoded date                             : UTC 2021-01-14 08:36:26
    Writing application                      : mkvmerge v6.0.0 ('Coming Up For Air') built on Jan 20 2013 09:52:00
    Writing library                          : libebml v1.3.0 + libmatroska v1.4.0
    
    Video
    ID                                       : 1
    Format                                   : AVC
    Format/Info                              : Advanced Video Codec
    Format profile                           : [email protected]
    Format settings                          : CABAC / 5 Ref Frames
    Format settings, CABAC                   : Yes
    Format settings, Reference frames        : 5 frames
    Codec ID                                 : V_MPEG4/ISO/AVC
    Duration                                 : 1 h 34 min
    Bit rate                                 : 4 527 kb/s
    Width                                    : 1 920 pixels
    Height                                   : 790 pixels
    Display aspect ratio                     : 2.40:1
    Frame rate mode                          : Constant
    Frame rate                               : 23.976 (24000/1001) FPS
    Color space                              : YUV
    Chroma subsampling                       : 4:2:0
    Bit depth                                : 8 bits
    Scan type                                : Progressive
    Bits/(Pixel*Frame)                       : 0.124
    Stream size                              : 2.98 GiB (80%)
    Language                                 : English
    Default                                  : Yes
    Forced                                   : No
    Color range                              : Limited
    Color primaries                          : BT.709
    Transfer characteristics                 : BT.709
    Matrix coefficients                      : BT.709
    Statistics Tags Issue                    : mkvmerge v51.0.0 ('I Wish') 64-bit 2020-12-28 16:51:05 / mkvmerge v6.0.0 ('Coming Up For Air') built on Jan 20 2013 09:52:00 2021-01-14 08:36:26
    FromStats_BitRate                        : 4606906
    FromStats_Duration                       : 01:34:23.413000000
    FromStats_FrameCount                     : 135787
    FromStats_StreamSize                     : 3261351897
    
    Audio #1
    ID                                       : 2
    Format                                   : AC-3
    Format/Info                              : Audio Coding 3
    Commercial name                          : Dolby Digital
    Codec ID                                 : A_AC3
    Duration                                 : 1 h 34 min
    Bit rate mode                            : Constant
    Bit rate                                 : 640 kb/s
    Channel(s)                               : 6 channels
    Channel layout                           : L R C LFE Ls Rs
    Sampling rate                            : 48.0 kHz
    Frame rate                               : 31.250 FPS (1536 SPF)
    Compression mode                         : Lossy
    Delay relative to video                  : -42 ms
    Stream size                              : 432 MiB (11%)
    Title                                    : Thai-Master
    Language                                 : Thai
    Service kind                             : Complete Main
    Default                                  : Yes
    Forced                                   : No
    
    Audio #2
    ID                                       : 3
    Format                                   : AC-3
    Format/Info                              : Audio Coding 3
    Commercial name                          : Dolby Digital
    Codec ID                                 : A_AC3
    Duration                                 : 1 h 34 min
    Bit rate mode                            : Constant
    Bit rate                                 : 384 kb/s
    Channel(s)                               : 6 channels
    Channel layout                           : L R C LFE Ls Rs
    Sampling rate                            : 48.0 kHz
    Frame rate                               : 31.250 FPS (1536 SPF)
    Compression mode                         : Lossy
    Delay relative to video                  : -42 ms
    Stream size                              : 259 MiB (7%)
    Language                                 : English
    Service kind                             : Complete Main
    Default                                  : No
    Forced                                   : No
    Statistics Tags Issue                    : mkvmerge v51.0.0 ('I Wish') 64-bit 2020-12-28 16:51:05 / mkvmerge v6.0.0 ('Coming Up For Air') built on Jan 20 2013 09:52:00 2021-01-14 08:36:26
    FromStats_BitRate                        : 384000
    FromStats_Duration                       : 01:34:23.488000000
    FromStats_FrameCount                     : 176984
    FromStats_StreamSize                     : 271847424
    
    Text #1
    ID                                       : 4
    Format                                   : PGS
    Muxing mode                              : zlib
    Codec ID                                 : S_HDMV/PGS
    Codec ID/Info                            : Picture based subtitle format used on BDs/HD-DVDs
    Language                                 : Thai
    Default                                  : Yes
    Forced                                   : No
    Statistics Tags Issue                    : mkvmerge v51.0.0 ('I Wish') 64-bit 2020-12-28 16:51:05 / mkvmerge v6.0.0 ('Coming Up For Air') built on Jan 20 2013 09:52:00 2021-01-14 08:36:26
    FromStats_BitRate                        : 22432
    FromStats_Duration                       : 01:32:32.260000000
    FromStats_FrameCount                     : 2022
    FromStats_StreamSize                     : 15568556
    
    Text #2
    ID                                       : 5
    Format                                   : PGS
    Muxing mode                              : zlib
    Codec ID                                 : S_HDMV/PGS
    Codec ID/Info                            : Picture based subtitle format used on BDs/HD-DVDs
    Language                                 : English
    Default                                  : No
    Forced                                   : No
    Statistics Tags Issue                    : mkvmerge v51.0.0 ('I Wish') 64-bit 2020-12-28 16:51:05 / mkvmerge v6.0.0 ('Coming Up For Air') built on Jan 20 2013 09:52:00 2021-01-14 08:36:26
    FromStats_BitRate                        : 33056
    FromStats_Duration                       : 01:33:41.420000000
    FromStats_FrameCount                     : 2734
    FromStats_StreamSize                     : 23227885
    
    Text #3
    ID                                       : 6
    Format                                   : UTF-8
    Codec ID                                 : S_TEXT/UTF8
    Codec ID/Info                            : UTF-8 Plain Text
    Language                                 : English
    Default                                  : No
    Forced                                   : No
    Statistics Tags Issue                    : mkvmerge v51.0.0 ('I Wish') 64-bit 2020-12-28 16:51:05 / mkvmerge v6.0.0 ('Coming Up For Air') built on Jan 20 2013 09:52:00 2021-01-14 08:36:26
    FromStats_BitRate                        : 57
    FromStats_Duration                       : 01:33:41.420000000
    FromStats_FrameCount                     : 1367
    FromStats_StreamSize                     : 40285
    
    Text #4
    ID                                       : 7
    Format                                   : UTF-8
    Codec ID                                 : S_TEXT/UTF8
    Codec ID/Info                            : UTF-8 Plain Text
    Language                                 : Thai
    Default                                  : No
    Forced                                   : No
    Statistics Tags Issue                    : mkvmerge v51.0.0 ('I Wish') 64-bit 2020-12-28 16:51:05 / mkvmerge v6.0.0 ('Coming Up For Air') built on Jan 20 2013 09:52:00 2021-01-14 08:36:26
    FromStats_BitRate                        : 102
    FromStats_Duration                       : 01:32:32.260000000
    FromStats_FrameCount                     : 1011
    FromStats_StreamSize                     : 71284
    
    Menu
    00:00:00.000                             : en:1
    00:07:36.456                             : en:2
    00:10:36.969                             : en:3
    00:15:06.404                             : en:4
    00:20:44.825                             : en:5
    00:26:49.980                             : en:6
    00:32:10.799                             : en:7
    00:38:49.656                             : en:8
    00:43:16.630                             : en:9
    00:49:11.693                             : en:10
    00:55:50.841                             : en:11
    00:59:52.040                             : en:12
    01:04:03.123                             : en:13
    01:09:36.830                             : en:14
    01:15:40.818                             : en:15
    01:24:26.385                             : en:16





    Download:cornfile
    http://cornfile.com/kv2909v91j9p
    Download:filecondo
    http://www.filecondo.com/dl.php?f=S0127e1L00Ny

  2. #2
    Senior Member
    สมัครเมื่อ
    Jul 2013
    โพสต์
    1,624
    Thanks
    0
    Thanked 0 Times in 0 Posts
    ขอบคุณครับ

+ ตอบกลับกระทู้

ข้อมูลกระทู้

Users Browsing this Thread

ในขณะนี้มี 1 ท่านดูกระทู้อยู่. (0 สมาชิกและ 1 ผู้เยี่ยมชม)

     

กฎการโพสต์ข้อความ

  • ท่าน ไม่สามารถ ตั้งกระทู้ใหม่ได้
  • ท่าน ไม่สามารถ ตอบกระทู้ได้
  • ท่าน ไม่สามารถ แนบไฟล์ได้
  • ท่าน ไม่สามารถ แก้ไขข้อความโพสต์ได้
  • BB code สถานะ เปิด
  • Smilies สถานะ เปิด
  • [IMG] สถานะ เปิด
  • HTML สถานะ ปิด