+ ตอบกลับกระทู้
สรุปผลการค้นหา 1 ถึง 5 จากทั้งหมด 5
  1. #1
    Administrators รูปส่วนตัว Duckload.us
    สมัครเมื่อ
    Dec 2010
    โพสต์
    123,989
    Thanks
    7
    Thanked 128,958 Times in 57,331 Posts

    Thumbs up [ฝรั่ง]-ใหม่[Netflix] Outside the Wire - สมรภูมินอกลวดหนาม [2021] [พากย์ไทย 5.1 + พากย์อังกฤษ 5.1 Atmos] [บรรยายไทย PGS + อังกฤษ PGS]-WEB-DL.H.264.1080p. [Master]-[พากย์ไทย บรรยายไทย]



    ในโลกอนาคตอันใกล้ นักบินโดรนนายหนึ่ง (แดมสัน อิดริส) ถูกส่งเข้าไปในเขตทหารสุดอันตรายและต้องทำงานให้นายท หารดรอยด์ (แอนโธนี แม็คคี) ที่ได้รับมอบหมายให้ค้นหาอุปกรณ์วันสิ้นโลกให้ได้ก่อ นที่พวกกบฏจะหาเจอ
    Thomas Harp ที่เพิ่งถูกส่งตัวให้มาปฏิบัติภารกิจแรกกลางสนามรบ และต้องจับคู่กับตัวละคร Leo ผู้ที่เป็นสุดยอดทหารฝีมือฉกาจ และได้รับการเปิดเผยตัวเองภายหลังว่าเขาเป็นหุ่นแอนด รอยด์ที่มีทักษะและพละกำลังเหนือมนุษย์ ทั้งคู่ได้รับภารกิจให้เสาะหาและกอบกู้เครื่องมือวัน สิ้นโลกที่อาจเป็นตัวแปรสำคัญที่จะยุติสงครามที่กำลั งเกิดขึ้นให้จบสิ้น


    Format : Matroska
    Format version : Version 4
    File size : 4.28 GiB
    Duration : 1 h 55 min
    Overall bit rate : 5 292 kb/s
    Movie name : Outside the Wire - สมรภูมินอกลวดนาม [2021] 1080p - VV
    Encoded date : UTC 2021-01-15 08:49:18
    Writing application : Lavf58.65.100
    Writing library : Lavf58.65.100
    ErrorDetectionType : Per level 1

    Video
    ID : 1
    Format : AVC
    Format/Info : Advanced Video Codec
    Format profile : [email protected]
    Format settings : CABAC / 2 Ref Frames
    Format settings, CABAC : Yes
    Format settings, Reference frames : 2 frames
    Codec ID : V_MPEG4/ISO/AVC
    Duration : 1 h 55 min
    Bit rate : 3 902 kb/s
    Width : 1 920 pixels
    Height : 1 080 pixels
    Display aspect ratio : 16:9
    Frame rate mode : Constant
    Frame rate : 24.000 FPS
    Color space : YUV
    Chroma subsampling : 4:2:0
    Bit depth : 8 bits
    Scan type : Progressive
    Bits/(Pixel*Frame) : 0.078
    Stream size : 3.06 GiB (71%)
    Writing library : x264 core 161 r3027
    Encoding settings : cabac=1 / ref=2 / deblock=1:0:0 / analyse=0x1:0x131 / me=hex / subme=7 / psy=1 / psy_rd=1.00:0.00 / mixed_ref=0 / me_range=16 / chroma_me=1 / trellis=1 / 8x8dct=0 / cqm=0 / deadzone=21,11 / fast_pskip=1 / chroma_qp_offset=-2 / threads=24 / lookahead_threads=4 / sliced_threads=0 / nr=0 / decimate=1 / interlaced=0 / bluray_compat=0 / constrained_intra=0 / bframes=3 / b_pyramid=0 / b_adapt=1 / b_bias=0 / direct=0 / weightb=1 / open_gop=0 / weightp=2 / keyint=240 / keyint_min=24 / scenecut=40 / intra_refresh=0 / rc_lookahead=40 / rc=abr / mbtree=1 / bitrate=3902 / ratetol=1.0 / qcomp=0.60 / qpmin=10 / qpmax=69 / qpstep=4 / vbv_maxrate=4402 / vbv_bufsize=24000 / nal_hrd=none / filler=0 / ip_ratio=1.40 / aq=3:1.00
    Default : Yes
    Forced : No

    Audio #1
    ID : 2
    Format : E-AC-3 JOC
    Format/Info : Enhanced AC-3 with Joint Object Coding
    Commercial name : Dolby Digital Plus with Dolby Atmos
    Codec ID : A_EAC3
    Duration : 1 h 55 min
    Bit rate mode : Constant
    Bit rate : 768 kb/s
    Channel(s) : 6 channels
    Channel layout : L R C LFE Ls Rs
    Sampling rate : 48.0 kHz
    Frame rate : 31.250 FPS (1536 SPF)
    Bit depth : 32 bits
    Compression mode : Lossy
    Stream size : 637 MiB (15%)
    Title : Eng 5.1 Atmos
    Language : English
    Service kind : Complete Main
    Default : Yes
    Forced : No
    Complexity index : 16
    Number of dynamic objects : 15
    Bed channel count : 1 channel
    Bed channel configuration : LFE

    Audio #2
    ID : 3
    Format : E-AC-3
    Format/Info : Enhanced AC-3
    Commercial name : Dolby Digital Plus
    Codec ID : A_EAC3
    Duration : 1 h 55 min
    Bit rate mode : Constant
    Bit rate : 640 kb/s
    Channel(s) : 6 channels
    Channel layout : L R C LFE Ls Rs
    Sampling rate : 48.0 kHz
    Frame rate : 31.250 FPS (1536 SPF)
    Bit depth : 32 bits
    Compression mode : Lossy
    Stream size : 530 MiB (12%)
    Title : Thai 5.1
    Language : Thai
    Service kind : Complete Main
    Default : No
    Forced : No

    Text #1
    ID : 4
    Format : PGS
    Codec ID : S_HDMV/PGS
    Codec ID/Info : Picture based subtitle format used on BDs/HD-DVDs
    Duration : 1 h 46 min
    Language : English
    Default : No
    Forced : No

    Text #2
    ID : 5
    Format : PGS
    Codec ID : S_HDMV/PGS
    Codec ID/Info : Picture based subtitle format used on BDs/HD-DVDs
    Duration : 1 h 54 min
    Language : Thai
    Default : Yes
    Forced : No










    Download:cornfile
    2021.สมรภูมินอกลวดหนาม.FHD.mkv - 2.3 GB
    Outside the Wire (2021).mkv - 5.4 GB
    Outside the Wire - สมรภูมินอกลวดหนาม [2021] 1080p - VV.mkv - 4.3 GB
    Outside the Wire 2021 1080p NF WEB-DL DDP5.1 Atmos(eng) EAC3(Thai).mkv - 3.2 GB

    Download:filecondo
    2021.สมรภูมินอกลวดหนาม.FHD.mkv - 2.3 GB
    Outside the Wire (2021).mkv - 5.4 GB
    Outside the Wire - สมรภูมินอกลวดหนาม [2021] 1080p - VV.mkv - 4.3 GB
    Outside the Wire 2021 1080p NF WEB-DL DDP5.1 Atmos(eng) EAC3(Thai).mkv - 3.2 GB

  2. The Following 8 Users Say Thank You to Duckload.us For This Useful Post:

    bigbang06 (01-19-2021), markzooms (01-21-2021), NaiWan (01-16-2021), noi54 (01-16-2021), pntum (02-14-2021), sawara (01-17-2021), Tellmon (01-19-2021), Wesker_TOT (01-16-2021)

  3. #2
    Senior Member
    สมัครเมื่อ
    Dec 2013
    โพสต์
    2,583
    Thanks
    4,503
    Thanked 0 Times in 0 Posts
    ขอบคุณครับ...

  4. #3
    Senior Member
    สมัครเมื่อ
    Jul 2013
    โพสต์
    1,802
    Thanks
    0
    Thanked 0 Times in 0 Posts
    ขอบคุรครับ

  5. #4
    Senior Member
    สมัครเมื่อ
    Dec 2013
    โพสต์
    400
    Thanks
    329
    Thanked 0 Times in 0 Posts
    ขอบคุณครับ...

  6. #5
    Senior Member รูปส่วนตัว pntum
    สมัครเมื่อ
    Dec 2012
    โพสต์
    424
    Thanks
    403
    Thanked 0 Times in 0 Posts
    ...Thanks...

+ ตอบกลับกระทู้

ข้อมูลกระทู้

Users Browsing this Thread

ในขณะนี้มี 1 ท่านดูกระทู้อยู่. (0 สมาชิกและ 1 ผู้เยี่ยมชม)

     

กฎการโพสต์ข้อความ

  • ท่าน ไม่สามารถ ตั้งกระทู้ใหม่ได้
  • ท่าน ไม่สามารถ ตอบกระทู้ได้
  • ท่าน ไม่สามารถ แนบไฟล์ได้
  • ท่าน ไม่สามารถ แก้ไขข้อความโพสต์ได้
  • BB code สถานะ เปิด
  • Smilies สถานะ เปิด
  • [IMG] สถานะ เปิด
  • HTML สถานะ ปิด