+ ตอบกลับกระทู้
สรุปผลการค้นหา 1 ถึง 3 จากทั้งหมด 3
  1. #1
    Administrators รูปส่วนตัว Duckload.us
    สมัครเมื่อ
    Dec 2010
    โพสต์
    123,989
    Thanks
    7
    Thanked 128,958 Times in 57,331 Posts

    Thumbs up [จีน]-Soul Snatcher (2020) บัณฑิตหน้าใสกับนายจิ้งจอก เสียงไทย Master [เสียง จีน-ไทย AAC][บรรยายไทย PGS ASS SRT] -WEB-DL.H.264.1080p. [Modified]-[พากย์ไทย บรรยายไทย]




    เรื่องย่อ
    ไป่ฉีซาน จิ้งจอกหนุ่มผู้เลื่องชื่อได้ถูกมอบหมายภารกิจท้าทาย สำคัญ ปลอมตัวเป็นชายหนุ่มเพื่อตามหาไข่มุกวิญญาณ ภารกิจครั้งนี้นับเป็นบททดสอบสำคัญของเหล่านักเรียนจ ิ้งจอก ที่จะก้าวขึ้นไปสู่ขั้นสูงสุดเพื่อบรรลุความเป็นอมตะ ในดินแดนที่เขาอยู่ เขาจึงตัดสินใจเดินทางไปยังโลกมนุษย์เพื่อค้นหาไข่มุ กวิเศษ ด้วยความบังเอิญของโลกคู่ขนานที่โคจรมาทำให้ ไป่ฉีซาน พบกับ หวังซี่จิน บัณฑิตหนุ่มผู้แสนซื่อในเมืองมนุษย์ การพบกันครั้งนี้มันทำให้เขาทั้งสองคนกลายเป็นเพื่อน สนิทที่ต้องมาร่วมผจญภัยไปด้วยกัน โดยมีเป้าหมายเดียวกันคือต้องการกำจัดวิญญาณชั่วร้าย และสัตว์ร้ายในตำนานให้หมดสิ้น แต่ภารกิจนี้มันไม่ได้ง่ายดายอย่างที่พวกเขาคิด การเดินทางข้ามน้ำข้ามทะเลและผจญภัยไปกับภัยร้ายที่ม องไม่เห็นภารกิจใหญ่หลวงครั้งนี้จะต้องแลกด้วยอะไร? อะไรคือกุญแจสำคัญที่จะทำให้เขาทั้งคู่จะฝ่าฟันไปได้ หรือไม่?

    Video
    ID : 1
    Format : AVC
    Format/Info : Advanced Video Codec
    Format profile : [email protected]
    Format settings : CABAC / 3 Ref Frames
    Format settings, CABAC : Yes
    Format settings, Reference fra : 3 frames
    Codec ID : V_MPEG4/ISO/AVC
    Duration : 2 h 4 min
    Bit rate : 1 838 kb/s
    Width : 1 920 pixels
    Height : 800 pixels
    Display aspect ratio : 2.40:1
    Frame rate mode : Constant
    Frame rate : 24.000 FPS
    Color space : YUV
    Chroma subsampling : 4:2:0
    Bit depth : 8 bits
    Scan type : Progressive
    Bits/(Pixel*Frame) : 0.050
    Stream size : 1.60 GiB (85%)
    Writing library : qiyi.com vtc-test
    Default : Yes
    Forced : No
    Color range : Limited
    Color primaries : BT.709
    Transfer characteristics : BT.709
    Matrix coefficients : BT.709

    Audio #1
    ID : 2
    Format : AAC LC
    Format/Info : Advanced Audio Codec Low Complexity
    Codec ID : A_AAC-2
    Duration : 2 h 4 min
    Bit rate : 192 kb/s
    Channel(s) : 2 channels
    Channel layout : L R
    Sampling rate : 44.1 kHz
    Frame rate : 43.066 FPS (1024 SPF)
    Compression mode : Lossy
    Stream size : 169 MiB (9%)
    Title : Thai
    Language : Thai
    Default : Yes
    Forced : No

    Audio #2
    ID : 3
    Format : AAC LC
    Format/Info : Advanced Audio Codec Low Complexity
    Codec ID : A_AAC-2
    Duration : 2 h 4 min
    Bit rate : 61.9 kb/s
    Channel(s) : 2 channels
    Channel layout : L R
    Sampling rate : 44.1 kHz
    Frame rate : 43.066 FPS (1024 SPF)
    Compression mode : Lossy
    Stream size : 55.2 MiB (3%)
    Title : Chinese
    Language : Chinese
    Default : No
    Forced : No

    Text #1
    ID : 4
    Format : PGS
    Muxing mode : zlib
    Codec ID : S_HDMV/PGS
    Codec ID/Info : Picture based subtitle format used on BDs/HD-DVDs
    Duration : 2 h 0 min
    Bit rate : 36.6 kb/s
    Count of elements : 3060
    Stream size : 31.5 MiB (2%)
    Title : Cordia New
    Language : Thai
    Default : Yes
    Forced : No

    Text #2
    ID : 5
    Format : PGS
    Muxing mode : zlib
    Codec ID : S_HDMV/PGS
    Codec ID/Info : Picture based subtitle format used on BDs/HD-DVDs
    Duration : 2 h 0 min
    Bit rate : 36.6 kb/s
    Count of elements : 3060
    Stream size : 31.5 MiB (2%)
    Title : Cordia New Yellow
    Language : Thai
    Default : No
    Forced : No

    Text #3
    ID : 6
    Format : PGS
    Muxing mode : zlib
    Codec ID : S_HDMV/PGS
    Codec ID/Info : Picture based subtitle format used on BDs/HD-DVDs
    Duration : 2 h 0 min
    Bit rate : 36.5 kb/s
    Count of elements : 3060
    Stream size : 31.3 MiB (2%)
    Title : EucrosiaUPC
    Language : Thai
    Default : No
    Forced : No

    Text #4
    ID : 7
    Format : PGS
    Muxing mode : zlib
    Codec ID : S_HDMV/PGS
    Codec ID/Info : Picture based subtitle format used on BDs/HD-DVDs
    Duration : 2 h 0 min
    Bit rate : 36.5 kb/s
    Count of elements : 3060
    Stream size : 31.3 MiB (2%)
    Title : EucrosiaUPC Yellow
    Language : Thai
    Default : No
    Forced : No

    Text #5
    ID : 8
    Format : ASS
    Codec ID : S_TEXT/ASS
    Codec ID/Info : Advanced Sub Station Alpha
    Duration : 2 h 0 min
    Bit rate : 142 b/s
    Count of elements : 1530
    Compression mode : Lossless
    Stream size : 125 KiB (0%)
    Title : ASS
    Language : Thai
    Default : No
    Forced : No

    Text #6
    ID : 9
    Format : UTF-8
    Codec ID : S_TEXT/UTF8
    Codec ID/Info : UTF-8 Plain Text
    Duration : 2 h 0 min
    Bit rate : 104 b/s
    Count of elements : 1530
    Stream size : 92.0 KiB (0%)
    Title : SRT
    Language : Thai
    Default : No
    Forced : No










    Download:cornfile
    http://cornfile.com/qygqcrume8dq
    Download:filecondo
    http://www.filecondo.com/dl.php?f=yff1b21L0CLZ

  2. The Following 2 Users Say Thank You to Duckload.us For This Useful Post:

    kappa (01-16-2021), sawara (01-17-2021)

  3. #2
    Senior Member
    สมัครเมื่อ
    Jul 2013
    โพสต์
    1,802
    Thanks
    0
    Thanked 0 Times in 0 Posts
    ขอบคุรครับ

  4. #3
    Senior Member
    สมัครเมื่อ
    Dec 2013
    โพสต์
    400
    Thanks
    329
    Thanked 0 Times in 0 Posts
    ขอบคุณครับ...

+ ตอบกลับกระทู้

ข้อมูลกระทู้

Users Browsing this Thread

ในขณะนี้มี 1 ท่านดูกระทู้อยู่. (0 สมาชิกและ 1 ผู้เยี่ยมชม)

     

กฎการโพสต์ข้อความ

  • ท่าน ไม่สามารถ ตั้งกระทู้ใหม่ได้
  • ท่าน ไม่สามารถ ตอบกระทู้ได้
  • ท่าน ไม่สามารถ แนบไฟล์ได้
  • ท่าน ไม่สามารถ แก้ไขข้อความโพสต์ได้
  • BB code สถานะ เปิด
  • Smilies สถานะ เปิด
  • [IMG] สถานะ เปิด
  • HTML สถานะ ปิด