+ ตอบกลับกระทู้
สรุปผลการค้นหา 1 ถึง 3 จากทั้งหมด 3
  1. #1
    Administrators รูปส่วนตัว Duckload.us
    สมัครเมื่อ
    Dec 2010
    โพสต์
    123,776
    Thanks
    7
    Thanked 128,795 Times in 57,297 Posts

    Thumbs up [ฝรั่ง]-[New Fight Back] Run h-i-d-e Fight 2020 1080p WEB-DL AAC2 0 H264 สู้เพื่อ รอด-WEB-DL.H.264.1080p. [Modified]-[Soundtrack ไม่มีบรรยาย]



    หนังอื้อฉาว “Run h-i-d-e Fight” หนัง Die Hard ฉบับมัธยม

    ผู้กำกับไคล์ แรนกิน (Night of the Living Deb, The Battle of Shaker Heights) อยากทำหนังที่พูดถึงเหตุการณ์คนร้ายบุกโรงเรียนและใช ้ปืนยิงผู้คน แต่ไม่อยากทำตามแบบหนังที่เคยทำมาแล้วอย่าง “Elephant” หรือ “We Need to Talk Kevin” จึงใช้แง่มุมหนังบู๊แบบ “Die Hard” มานำเสนอหนังแทน ผลที่ได้ก็คือหนังบู๊เขย่าขวัญ “Run h-i-d-e Fight” ที่เพิ่งปล่อยตัวอย่างหนังออกมาครับ

    หนังมีอิซาเบล เมย์ (Young Sheldon) รับบทเป็นเด็กมัธยมที่ได้รับการฝึกฝนการยิงปืนและการ เอาตัวรอดจากพ่อของเธอ (โธมัส เจน) ผู้ที่พาเธอออกไปล่าสัตว์ด้วยบ่อยๆ ทักษะนั้นได้กลายเป็นประโยชน์ต่อตัวเธอและเพื่อนในโร งเรียนเมื่อมีแก๊งเด็กวัยรุ่นที่มาพร้อมอาวุธปืนชุดห นักบุกเข้ายึดโรงเรียนและจับเด็กกับครูเป็นตัวประกัน นำไปสู่เรื่องราวแนว “Die Hard” ฉบับเด็กนักเรียนมัธยม

    ชื่อหนังเป็นหลักที่ใช้สอนประชาชนหรือเด็กในโรงเรียน สหรัฐเพื่อเอาตัวรอด เมื่อตกอยู่ในสถานการณ์ที่คล้ายกับในหนังเรื่องนี้ นั่นก็คือ “วิ่ง” หาทางออกให้เร็วที่สุด “ซ่อนตัว” ถ้าไม่พบทางออกหรือถูกกีดขวาง แต่ถ้าไม่มีทางเลือกให้หาสิ่งอุปกรณ์เป็นอาวุธ “ต่อสู้”

    หนังออกฉายในเทศกาลหนังเวนิสไปเมื่อปีที่แล้ว แต่จากอารมณ์ของฉากแอ็คชั่นในหนังทำให้นักวิจารณ์ส่ว นหนึ่งตีความกันว่าหนังเรื่องนี้สนับสนุนอาวุธปืน แทนที่จะให้เห็นความน่ากลัวของการครอบครองปืนจนเกิดป ระเด็นถกเถียงกัน แถมแย่ไปกว่านั้นก็คือ หนังได้ The Daily Wire ที่เป็นสำนักข่าวอนุรักษ์นิยมขวาจัดของสหรัฐเป็นผู้จ ัดจำหน่ายหนังครับ

    Format : Matroska
    Format version : Version 4
    File size : 3.06 GiB
    Duration : 1 h 49 min
    Overall bit rate : 4 010 kb/s
    Movie name : Run.Hide.Fight.2020.1080p.WEB-DL.AAC2.0.H264-FGT
    Encoded date : UTC 2021-01-16 05:08:42
    Writing application : mkvmerge v51.0.0 ('I Wish') 64-bit
    Writing library : libebml v1.4.0 + libmatroska v1.6.2
    Cover : Yes
    Attachments : small_cover.jpg / small_cover_land.jpg / cover.jpg / cover_land.jpg

    Video
    ID : 1
    Format : AVC
    Format/Info : Advanced Video Codec
    Format profile : [email protected]
    Format settings : CABAC / 3 Ref Frames
    Format settings, CABAC : Yes
    Format settings, Reference frames : 3 frames
    Codec ID : V_MPEG4/ISO/AVC
    Duration : 1 h 49 min
    Bit rate : 3 816 kb/s
    Width : 1 920 pixels
    Height : 1 080 pixels
    Display aspect ratio : 16:9
    Frame rate mode : Constant
    Frame rate : 23.976 (24000/1001) FPS
    Color space : YUV
    Chroma subsampling : 4:2:0
    Bit depth : 8 bits
    Scan type : Progressive
    Bits/(Pixel*Frame) : 0.077
    Stream size : 2.91 GiB (95%)
    Language : English
    Default : Yes
    Forced : No
    Color range : Limited
    Color primaries : BT.709
    Matrix coefficients : BT.709

    Audio
    ID : 2
    Format : AAC LC
    Format/Info : Advanced Audio Codec Low Complexity
    Codec ID : A_AAC-2
    Duration : 1 h 49 min
    Bit rate : 192 kb/s
    Channel(s) : 2 channels
    Channel layout : L R
    Sampling rate : 48.0 kHz
    Frame rate : 46.875 FPS (1024 SPF)
    Compression mode : Lossy
    Stream size : 150 MiB (5%)
    Title : AAC 2.0
    Language : English
    Default : Yes
    Forced : No





    Download:cornfile
    http://cornfile.com/4239nrumbkfw
    Download:filecondo
    http://www.filecondo.com/dl.php?f=a603d61L1s46

  2. The Following 2 Users Say Thank You to Duckload.us For This Useful Post:

    NaiWan (01-19-2021), Wesker_TOT (01-18-2021)

  3. #2
    Senior Member
    สมัครเมื่อ
    Jul 2013
    โพสต์
    1,784
    Thanks
    0
    Thanked 0 Times in 0 Posts
    ขอบคุณครับ

  4. #3
    Senior Member
    สมัครเมื่อ
    Dec 2013
    โพสต์
    2,580
    Thanks
    4,501
    Thanked 0 Times in 0 Posts
    ขอบคุณนะครับ...

+ ตอบกลับกระทู้

ข้อมูลกระทู้

Users Browsing this Thread

ในขณะนี้มี 1 ท่านดูกระทู้อยู่. (0 สมาชิกและ 1 ผู้เยี่ยมชม)

     

กฎการโพสต์ข้อความ

  • ท่าน ไม่สามารถ ตั้งกระทู้ใหม่ได้
  • ท่าน ไม่สามารถ ตอบกระทู้ได้
  • ท่าน ไม่สามารถ แนบไฟล์ได้
  • ท่าน ไม่สามารถ แก้ไขข้อความโพสต์ได้
  • BB code สถานะ เปิด
  • Smilies สถานะ เปิด
  • [IMG] สถานะ เปิด
  • HTML สถานะ ปิด