+ ตอบกลับกระทู้
สรุปผลการค้นหา 1 ถึง 3 จากทั้งหมด 3
  1. #1
    Administrators รูปส่วนตัว Duckload.us
    สมัครเมื่อ
    Dec 2010
    โพสต์
    123,776
    Thanks
    7
    Thanked 128,794 Times in 57,297 Posts

    Thumbs up [ฝรั่ง]-โควิด 23 ไวรัสล้างโลก (Songbird 2020) [เสียงอังกฤษ Dolby Digital 5.1 [*บรรยาย: ไทย PGS คมชัด] [* 1080p Full-HD]-Encode.H.264.1080p. [Modified]-[Soundtrack บรรยายไทยแปลรู้เรื่อง]



    ผลงานการสร้างจาก ไมเคิล เบย์ ผู้สร้าง Transformers, A Quiet Place และ The Purge สู่ฝันร้ายครั้งใหม่ที่มาในรูปแบบมฤตยูไวรัสล้างโลก ในโลกอนาคตปี 2024 เมื่อไวรัสโควิด 23 ระบาดร้ายแรงเริ่มกลายพันธุ์ และคร่าชีวิตผู้คนไปมากกว่า 110 ล้านรายทั่วโลก! เพื่อป้องกันการแพร่เชื้อทั้งโลกจึงต้องอยู่ในภาวะล็ อคดาวน์ มีการประกาศเคอร์ฟิว และพลเมืองที่ไม่ได้รับอนุญาตต้องอยู่แต่ในอาคาร ใครฝ่าฝืนจะถูกรัฐบาลใช้มาตราการรุนแรงปราบปราม แต่แล้วหายนะก็บังเกิดกับ นิโก (เคเจ อาปา) ชายหนุ่มผู้มีภูมิคุ้มกัน เมื่อ ซาร่า (โซเฟีย คาร์สัน) แฟนสาวของเขาที่ไม่เคยมีโอกาสเจอกันอีกเลยนับตั้งแต่ เกิดเหตุไวรัสระบาด กำลังจะถูกเจ้าหน้าที่บุกมาถึงที่พักภายในไม่กี่ชั่ว โมงหลังถูกต้องสงสัยว่าติดเชื้อ นิโกจึงต้องรีบเดินทางฝ่ามฤตยูไวรัสล้างโลกนี้ พร้อมทำทุกวิถีทางเพื่อช่วยซาร่าให้ได้ก่อนที่ทุกอย่ างจะสายเกินไป

    Code:
    Format                                   : Matroska
    Format version                           : Version 4
    File size                                : 5.80 GiB
    Duration                                 : 1 h 24 min
    Overall bit rate                         : 9 792 kb/s
    Encoded date                             : UTC 2021-01-09 16:58:17
    Writing application                      : mkvmerge v51.0.0 ('I Wish') 64-bit
    Writing library                          : libebml v1.4.0 + libmatroska v1.6.2
    
    Video
    ID                                       : 1
    Format                                   : AVC
    Format/Info                              : Advanced Video Codec
    Format profile                           : [email protected]
    Format settings                          : CABAC / 4 Ref Frames
    Format settings, CABAC                   : Yes
    Format settings, Reference frames        : 4 frames
    Codec ID                                 : V_MPEG4/ISO/AVC
    Duration                                 : 1 h 24 min
    Bit rate mode                            : Constant
    Bit rate                                 : 9 150 kb/s
    Nominal bit rate                         : 10 000 kb/s
    Width                                    : 1 920 pixels
    Height                                   : 800 pixels
    Display aspect ratio                     : 2.40:1
    Frame rate mode                          : Constant
    Frame rate                               : 23.976 (24000/1001) FPS
    Color space                              : YUV
    Chroma subsampling                       : 4:2:0
    Bit depth                                : 8 bits
    Scan type                                : Progressive
    Bits/(Pixel*Frame)                       : 0.248
    Stream size                              : 5.42 GiB (93%)
    Default                                  : Yes
    Forced                                   : No
    Color range                              : Limited
    Color primaries                          : BT.709
    Transfer characteristics                 : BT.709
    Matrix coefficients                      : BT.709
    
    Audio
    ID                                       : 2
    Format                                   : E-AC-3
    Format/Info                              : Enhanced AC-3
    Commercial name                          : Dolby Digital Plus
    Codec ID                                 : A_EAC3
    Duration                                 : 1 h 24 min
    Bit rate mode                            : Constant
    Bit rate                                 : 640 kb/s
    Channel(s)                               : 6 channels
    Channel layout                           : L R C LFE Ls Rs
    Sampling rate                            : 48.0 kHz
    Frame rate                               : 31.250 FPS (1536 SPF)
    Compression mode                         : Lossy
    Stream size                              : 388 MiB (7%)
    Language                                 : English
    Service kind                             : Complete Main
    Default                                  : Yes
    Forced                                   : No
    
    Text
    ID                                       : 3
    Format                                   : UTF-8
    Codec ID                                 : S_TEXT/UTF8
    Codec ID/Info                            : UTF-8 Plain Text
    Duration                                 : 1 h 24 min
    Bit rate                                 : 136 b/s
    Count of elements                        : 1143
    Stream size                              : 84.3 KiB (0%)
    Default                                  : Yes
    Forced                                   : No
    
    Menu
    00:00:00.000                             : en:Studio Logo
    00:00:47.000                             : en:Scene 2
    00:02:15.000                             : en:Opening Credits
    00:02:24.000                             : en:Title Sequence
    00:02:28.000                             : en:Opening Credits
    00:03:18.000                             : en:Scene 6
    00:07:41.000                             : en:Scene 7
    00:11:14.000                             : en:Scene 8
    00:15:14.000                             : en:Scene 9
    00:18:32.000                             : en:Scene 10
    00:19:13.000                             : en:Scene 11
    00:23:26.000                             : en:Scene 12
    00:27:24.000                             : en:Scene 13
    00:29:19.000                             : en:Scene 14
    00:33:55.000                             : en:Scene 15
    00:35:59.000                             : en:Scene 16
    00:38:41.000                             : en:Scene 17
    00:43:18.000                             : en:Scene 18
    00:49:10.000                             : en:Scene 19
    00:50:49.000                             : en:Scene 20
    00:54:56.000                             : en:Scene 21
    00:57:23.000                             : en:Scene 22
    01:06:13.000                             : en:Scene 23
    01:13:32.000                             : en:Scene 24
    01:18:56.000                             : en:Scene 25
    01:21:32.000                             : en:End Credits
    [IMG]blob:https://imgur.com/9bcc5324-1aee-4e9b-9eb3-5d0cff30307d[/IMG]






    [Soundtrack บรรยายไทยแปลรู้เรื่อง]
    Download:cornfile
    http://cornfile.com/vjj14q49e12p
    Download:filecondo
    http://www.filecondo.com/dl.php?f=f6e7f01L16xD

  2. The Following User Says Thank You to Duckload.us For This Useful Post:

    Wesker_TOT (01-18-2021)

  3. #2
    Senior Member
    สมัครเมื่อ
    Jul 2013
    โพสต์
    1,784
    Thanks
    0
    Thanked 0 Times in 0 Posts
    ขอบคุณครับ

  4. #3
    Senior Member
    สมัครเมื่อ
    Dec 2013
    โพสต์
    2,580
    Thanks
    4,501
    Thanked 0 Times in 0 Posts
    ขอบคุณนะครับ...

+ ตอบกลับกระทู้

ข้อมูลกระทู้

Users Browsing this Thread

ในขณะนี้มี 1 ท่านดูกระทู้อยู่. (0 สมาชิกและ 1 ผู้เยี่ยมชม)

     

กฎการโพสต์ข้อความ

  • ท่าน ไม่สามารถ ตั้งกระทู้ใหม่ได้
  • ท่าน ไม่สามารถ ตอบกระทู้ได้
  • ท่าน ไม่สามารถ แนบไฟล์ได้
  • ท่าน ไม่สามารถ แก้ไขข้อความโพสต์ได้
  • BB code สถานะ เปิด
  • Smilies สถานะ เปิด
  • [IMG] สถานะ เปิด
  • HTML สถานะ ปิด