+ ตอบกลับกระทู้
สรุปผลการค้นหา 1 ถึง 1 จากทั้งหมด 1
  1. #1
    Administrators รูปส่วนตัว Duckload.us
    สมัครเมื่อ
    Dec 2010
    โพสต์
    126,470
    Thanks
    7
    Thanked 131,133 Times in 58,068 Posts

    Lightbulb [จีน]-The Eternal Love ท่านอ๋องเมื่อไหร่จะหย่ากับข้า ภาค 1 [Web-Rip 1080p] [เสียง ไทย/จีน-ซับไทย+พิเศษพื้นหลังดำ From WeTV] @Meguno



    The Eternal Love ท่านอ๋องเมื่อไหร่จะหย่ากับข้า ภาค 1 ผู้กำกับ: หยวนเต๋อ
    นักแสดง: สิงเจาหลิน เหลียงเจี๋ย หวังรุ่ยชาง จงฉี ซุนอี้หมิง หวังห้าวเกอ ซินรุ่ยฉี หูชุนโหย่ว
    ท่านอ๋องเมื่อไรจะหย่ากับข้า ซีรีส์จีนย้อนยุคที่ดัดแปลงจากนิยายจีนยอดฮิตเรื่อง เป้าเสี้ยวฉ่งเฟย กล่าวถึงฉวี่ถานเอ๋อ (เหลียงเจี๋ย) หญิงสาวที่มีสองบุคลิก ลูกสาวของขุนนางใหญ่ นางได้พบกับโม่เหลียนเฉิง (สิงเจาหลิน) องค์ชายแปดของเมืองตงเยว่ ด้วยบุคลิกที่แปลกๆ บางครั้งก็เรียบร้อยอ่อนหวาน บางครั้งก็ห้าวหาญของฉวี่ถานเอ๋อ ทำให้โม่เหลียนเฉิงไม่ไว้ใจนางนัก จนในที่สุดเขาก็ได้รู้ว่าที่เธอมีสองบุคลิกเป็นเพราะ ในร่างของเธอมีดวงจิตอีกดวงหนึ่ง คือเสี่ยวถาน(เหลียงเจี๋ย)หญิงสาวที่หลงมาจากโลกอนาค ต เสี่ยวถานช่วยโม่เหลียนเฉิงสืบคดีจึงทำให้เธอต้องเข้ าไปพัวพันกับการศึกชิงบัลลังก์ในวังหลวงอย่างหลีกเลี ่ยงไม่ได้ ท้ายสุดแล้วความรักของทั้งคู่จะดำเนินไปอย่างไร ติดตามได้ในซีรีส์ท่านอ๋องเมื่อไรจะหย่ากับข้า ทาง WeTV

    ไฟล์นี้จะเป็นเสียง ไทย/จีน ซับไทยจะมี 2 แบบ แบบธรรมดากับพื้นหลังสีดำสำหรับทับซับจีนที่ฝังมา

    General
    Unique ID : 185433881456312811754839771051929748627 (0x8B814439592E59E7E9F0F6078C55C493)
    Complete name : C:UserssahacDesktopThe Eternal Love 1The Eternal Love (2017) Ep.01 [1080p].mkv
    Format : Matroska
    Format version : Version 4
    File size : 1.09 GiB
    Duration : 34 min 39 s
    Overall bit rate : 4 483 kb/s
    Encoded date : UTC 2020-12-20 10:54:15
    Writing application : mkvmerge v51.0.0 ('I Wish') 64-bit
    Writing library : libebml v1.4.0 + libmatroska v1.6.2

    Video
    ID : 1
    Format : AVC
    Format/Info : Advanced Video Codec
    Format profile : [email protected]
    Format settings : CABAC / 4 Ref Frames
    Format settings, CABAC : Yes
    Format settings, Reference : 4 frames
    Codec ID : V_MPEG4/ISO/AVC
    Duration : 34 min 39 s
    Bit rate : 4 082 kb/s
    Width : 1 920 pixels
    Height : 1 080 pixels
    Display aspect ratio : 16:9
    Frame rate mode : Constant
    Frame rate : 25.000 FPS
    Color space : YUV
    Chroma subsampling : 4:2:0
    Bit depth : 8 bits
    Scan type : Progressive
    Bits/(Pixel*Frame) : 0.079
    Stream size : 1.00 GiB (93%)
    Writing library : x264 core 157
    Encoding settings : cabac=1 / ref=4 / deblock=1:2:2 / analyse=0x3:0x113 / me=hex / subme=2 / psy=1 / psy_rd=1.00:0.00 / mixed_ref=1 / me_range=16 / chroma_me=1 / trellis=0 / 8x8dct=1 / cqm=0 / deadzone=21,11 / fast_pskip=1 / chroma_qp_offset=0 / threads=34 / lookahead_threads=8 / sliced_threads=0 / nr=0 / decimate=1 / interlaced=0 / bluray_compat=0 / constrained_intra=0 / bframes=0 / weightp=2 / keyint=75 / keyint_min=7 / scenecut=0 / intra_refresh=0 / rc_lookahead=40 / rc=abr / mbtree=1 / bitrate=4082 / ratetol=1.0 / qcomp=0.60 / qpmin=10 / qpmax=51 / qpstep=4 / ip_ratio=0.91 / aq=1:1.00
    Language : Chinese
    Default : Yes
    Forced : No

    Audio #1
    ID : 2
    Format : AAC LC
    Format/Info : Advanced Audio Codec Low Complexity
    Codec ID : A_AAC-2
    Duration : 34 min 38 s
    Bit rate : 204 kb/s
    Channel(s) : 2 channels
    Channel layout : L R
    Sampling rate : 44.1 kHz
    Frame rate : 43.066 FPS (1024 SPF)
    Compression mode : Lossy
    Delay relative to video : 2 ms
    Stream size : 50.6 MiB (5%)
    Language : Thai
    Default : Yes
    Forced : No

    Audio #2
    ID : 3
    Format : AAC LC
    Format/Info : Advanced Audio Codec Low Complexity
    Codec ID : A_AAC-2
    Duration : 34 min 39 s
    Bit rate : 128 kb/s
    Channel(s) : 2 channels
    Channel layout : L R
    Sampling rate : 44.1 kHz
    Frame rate : 43.066 FPS (1024 SPF)
    Compression mode : Lossy
    Stream size : 31.7 MiB (3%)
    Language : Chinese
    Default : No
    Forced : No

    Text #1
    ID : 4
    Format : ASS
    Codec ID : S_TEXT/ASS
    Codec ID/Info : Advanced Sub Station Alpha
    Duration : 29 min 51 s
    Bit rate : 183 b/s
    Count of elements : 475
    Compression mode : Lossless
    Stream size : 40.1 KiB (0%)
    Language : Thai
    Default : Yes
    Forced : No

    Text #2
    ID : 5
    Format : UTF-8
    Codec ID : S_TEXT/UTF8
    Codec ID/Info : UTF-8 Plain Text
    Duration : 29 min 51 s
    Bit rate : 137 b/s
    Count of elements : 475
    Stream size : 30.0 KiB (0%)
    Language : Thai
    Default : No
    Forced : No



    01
    http://www.filecondo.com/dl.php?f=y14b621L1b43
    02
    http://www.filecondo.com/dl.php?f=cee4d61L1b51
    03
    http://www.filecondo.com/dl.php?f=Ie41e31L1b5Z
    04
    http://www.filecondo.com/dl.php?f=68b1791L1b6Y
    05
    http://www.filecondo.com/dl.php?f=N26e761L1b7V
    06
    http://www.filecondo.com/dl.php?f=T2e62c1L1b8T
    07
    http://www.filecondo.com/dl.php?f=kd24d81L1b9S
    08
    http://www.filecondo.com/dl.php?f=q156171L1baP
    09
    http://www.filecondo.com/dl.php?f=xd3ce91L1bbL
    10
    http://www.filecondo.com/dl.php?f=m59cea1L1bcJ
    11
    http://www.filecondo.com/dl.php?f=37dac41L1bdI
    12
    http://www.filecondo.com/dl.php?f=M4e38e1L1bgE
    13
    http://www.filecondo.com/dl.php?f=acb2031L1bhA
    14
    http://www.filecondo.com/dl.php?f=d3ea3d1L1bix
    15
    http://www.filecondo.com/dl.php?f=da56051L1bjv
    16
    http://www.filecondo.com/dl.php?f=Tc28ac1L1bkt
    17
    http://www.filecondo.com/dl.php?f=H1e4d71L1bls
    18
    http://www.filecondo.com/dl.php?f=sc22311Ly2IR fix
    19
    http://www.filecondo.com/dl.php?f=b73ad61L1bno
    20
    http://www.filecondo.com/dl.php?f=n8fc911L1bom
    21
    http://www.filecondo.com/dl.php?f=X17b251L1bpj
    22
    http://www.filecondo.com/dl.php?f=ae79841L1bqh
    23
    http://www.filecondo.com/dl.php?f=x5d3ea1L1brf
    24
    http://www.filecondo.com/dl.php?f=K47a611L1bsd

  2. The Following User Says Thank You to Duckload.us For This Useful Post:

    thatsna4555555 (01-19-2021)

+ ตอบกลับกระทู้

ข้อมูลกระทู้

Users Browsing this Thread

ในขณะนี้มี 1 ท่านดูกระทู้อยู่. (0 สมาชิกและ 1 ผู้เยี่ยมชม)

     

กฎการโพสต์ข้อความ

  • ท่าน ไม่สามารถ ตั้งกระทู้ใหม่ได้
  • ท่าน ไม่สามารถ ตอบกระทู้ได้
  • ท่าน ไม่สามารถ แนบไฟล์ได้
  • ท่าน ไม่สามารถ แก้ไขข้อความโพสต์ได้
  • BB code สถานะ เปิด
  • Smilies สถานะ เปิด
  • [IMG] สถานะ เปิด
  • HTML สถานะ ปิด