+ ตอบกลับกระทู้
สรุปผลการค้นหา 1 ถึง 4 จากทั้งหมด 4
  1. #1
    Administrators รูปส่วนตัว Duckload.us
    สมัครเมื่อ
    Dec 2010
    โพสต์
    123,776
    Thanks
    7
    Thanked 128,794 Times in 57,297 Posts

    Thumbs up [ฝรั่ง]-เรือสยองมิตินรก Triangle.2009 ย้อนเวลาไล่ล่าฆ่าซ้ำที่ต้องดู ลึกลับเขย่าขวัญปนไซไฟ Time Loop ไฟล์เล็กสเปคสูง คมชัด 1080p.[เสียงอังกฤษ DTS+ไทย 5.1] บรรยายไทย+อังกฤษ PGS-WEB-DL.H.265.1080p. [Modified]-[พากย์ไทย บรรยายไทย]

    หนังดีจินตนาการเลิศที่ห้ามพลาด หนึ่งในตำนานภาพยนตร์วนลูป Time Loop แล้วจะรู้ว่าเราไปอยู่ไหนมาเนี้ย ถึงได้พลาด? นางเอกย้อนเวลากลับมาฆ่าและถูกฆ่าซ้ำ...



    ประเภท : : Fantasy | Mystery | Thriller (ล้ำจินตนาการ ลึกลับ และเขย่าขวัญ)
    กำกับการแสดง : Christopher Smith
    ดารานำแสดง : Melissa George, Joshua McIvor, Jack Taylor, Michael Dorman, Rachael Carpani……



    ภาพยนตร์ย้อนเวลาวนลูปไล่ล่าฆ่าซ้ำ ซึ่งได้รับการจัดอันดับให้เป็นหนังดีอีกเรื่องที่ไม่ ควรพลาดชม
    ไอเดียเลิศที่คาดไม่ถึง หนึ่งในตำนานหนัง Time Loop แล้วจะรู้ว่าคุณไปอยู่ไหนมาเนี้ย ถึงได้พลาด?
    ในสยามบิทนี้เคยมีคนนำมาปล่อยนานแล้ว แต่ไฟล์ใหญ่มาก และน่าเสียดายคนโหลดน้อยเกินคาด




    นางเอกชื่อ เจส มี 3 คน ? ปรากฏตัวในหนังคนละแห่งคนละที่ แต่ในห้วงเวลาเดียวกัน
    คนแรกเป็นแม่ใจร้ายชอบดุด่าทุบตีลูกชาย คนนี้อยู่ที่บ้านและตายที่บ้าน บนภาคพื้นดิน
    คนที่สองขึ้นเรือยอร์ชกับเพื่อนไปท่องทะเล แล้วเรือล่ม ขึ้นเรือใหญ่ ถูกไล่ฆ่า แต่ไม่ตาย เพื่อนตาย
    เจสคนที่สามอยู่ในเรือใหญ่รอไล่ล่าฆ่าเจสคนที่สองกับ พวก จุดประสงค์เพื่อกลับไปหาลูกชาย

    เจสคนที่สองกับเจสคนที่สามต่อสู้กัน ในที่สุดเจสคนที่สามพลัดตกทะเล (แล้วถูกคลื่นซัดเข้าฝั่ง)
    แต่ทันใดนั้น......ที่ด้านนอกของเรือใหญ่นี้มีเสียงก ลุ่มคนร้องขอความช่วยเหลือดังเข้ามา ซึ่งมิใช่ใครอื่น



    เจสคนที่สามขึ้นฝั่งหาทางกลับบ้าน ไปฆ่าเจสคนแรกที่ใจร้ายดุด่าทุบตีลูกชายในบ้านต่อหน้ าต่อตา
    ต่อมาเจสขับรถยนต์พาลูกชายไปตามถนน แล้วถูกรถยนต์บรรทุกชน......เจสคนที่สองยืนดูเหตุการ ณ์
    สุดท้ายเจสคนที่สองขึ้นเรือยอร์ชลำเดิม กับเพี่อนไปท่องทะเล เรือล่มและขึ้นเรือใหญ่อีก......ตลอดกาล

    งงใช่ไหม ขอแนะนำว่าเมื่อดูจบ ควรดูซ้ำอีกรอบทันที อย่างน้อยสัก 9.18 นาที หรือมากกว่านั้น แล้วจะเก็ท

    โมฯภาพและเสียงจาก Master แท้ คุณภาพเทียบเท่า Master โดยใช้ต้นฉบับหนังหลายแหล่ง.


    Code:
    Format                                   : Matroska
    Format version                           : Version 4
    File size                                : 3.21 GiB
    Duration                                 : 1 h 38 min
    Overall bit rate                         : 4 636 kb/s
    Movie name                               : Triangle.2009.1080p.BluRay.H264.\.DTS.AAC.AC-3.PGS
    Encoded date                             : UTC 2021-01-17 11:40:11
    Writing application                      : mkvmerge v52.0.0 ('Secret For The Mad') 64-bit
    Writing library                          : libebml v1.4.1 + libmatroska v1.6.2
    
    Video
    ID                                       : 1
    Format                                   : AVC
    Format/Info                              : Advanced Video Codec
    Format profile                           : [email protected]
    Format settings                          : CABAC / 4 Ref Frames
    Format settings, CABAC                   : Yes
    Format settings, Reference frames        : 4 frames
    Codec ID                                 : V_MPEG4/ISO/AVC
    Duration                                 : 1 h 38 min
    Bit rate                                 : 2 500 kb/s
    Width                                    : 1 920 pixels
    Height                                   : 816 pixels
    Display aspect ratio                     : 2.35:1
    Frame rate mode                          : Constant
    Frame rate                               : 23.976 (23976/1000) FPS
    Color space                              : YUV
    Chroma subsampling                       : 4:2:0
    Bit depth                                : 8 bits
    Scan type                                : Progressive
    Bits/(Pixel*Frame)                       : 0.067
    Stream size                              : 1.73 GiB (54%)
    Writing library                          : x264 core 152 r2851M ba24899
    Encoding settings                        : cabac=1 / ref=4 / deblock=1:-1:-1 / analyse=0x3:0x113 / me=umh / subme=9 / psy=1 / psy_rd=1.00:0.15 / mixed_ref=1 / me_range=24 / chroma_me=1 / trellis=2 / 8x8dct=1 / cqm=0 / deadzone=21,11 / fast_pskip=1 / chroma_qp_offset=-3 / threads=32 / lookahead_threads=4 / sliced_threads=0 / nr=0 / decimate=1 / interlaced=0 / bluray_compat=0 / constrained_intra=0 / bframes=3 / b_pyramid=2 / b_adapt=2 / b_bias=0 / direct=3 / weightb=1 / open_gop=0 / weightp=2 / keyint=250 / keyint_min=25 / scenecut=40 / intra_refresh=0 / rc_lookahead=50 / rc=2pass / mbtree=1 / bitrate=2500 / ratetol=1.0 / qcomp=0.60 / qpmin=0 / qpmax=69 / qpstep=4 / cplxblur=20.0 / qblur=0.5 / vbv_maxrate=31250 / vbv_bufsize=31250 / nal_hrd=none / filler=0 / ip_ratio=1.40 / aq=3:1.00
    Default                                  : Yes
    Forced                                   : No
    
    Audio #1
    ID                                       : 2
    Format                                   : AAC LC
    Format/Info                              : Advanced Audio Codec Low Complexity
    Codec ID                                 : A_AAC-2
    Duration                                 : 1 h 38 min
    Bit rate                                 : 224 kb/s
    Channel(s)                               : 6 channels
    Channel layout                           : C L R Ls Rs LFE
    Sampling rate                            : 48.0 kHz
    Frame rate                               : 46.875 FPS (1024 SPF)
    Compression mode                         : Lossy
    Delay relative to video                  : -43 ms
    Stream size                              : 159 MiB (5%)
    Title                                    : English
    Language                                 : English
    Default                                  : Yes
    Forced                                   : No
    
    Audio #2
    ID                                       : 3
    Format                                   : DTS
    Format/Info                              : Digital Theater Systems
    Codec ID                                 : A_DTS
    Duration                                 : 1 h 38 min
    Bit rate mode                            : Constant
    Bit rate                                 : 1 510 kb/s
    Channel(s)                               : 6 channels
    Channel layout                           : C L R Ls Rs LFE
    Sampling rate                            : 48.0 kHz
    Frame rate                               : 93.750 FPS (512 SPF)
    Bit depth                                : 24 bits
    Compression mode                         : Lossy
    Delay relative to video                  : 1 s 815 ms
    Stream size                              : 1.04 GiB (33%)
    Title                                    : English DTS
    Language                                 : English
    Default                                  : No
    Forced                                   : No
    
    Audio #3
    ID                                       : 4
    Format                                   : AC-3
    Format/Info                              : Audio Coding 3
    Commercial name                          : Dolby Digital
    Codec ID                                 : A_AC3
    Duration                                 : 1 h 38 min
    Bit rate mode                            : Constant
    Bit rate                                 : 384 kb/s
    Channel(s)                               : 6 channels
    Channel layout                           : L R C LFE Ls Rs
    Sampling rate                            : 48.0 kHz
    Frame rate                               : 31.250 FPS (1536 SPF)
    Compression mode                         : Lossy
    Delay relative to video                  : 1 s 823 ms
    Stream size                              : 272 MiB (8%)
    Title                                    : Thai AC3
    Language                                 : Thai
    Service kind                             : Complete Main
    Default                                  : No
    Forced                                   : No
    
    Text #1
    ID                                       : 5
    Format                                   : PGS
    Muxing mode                              : zlib
    Codec ID                                 : S_HDMV/PGS
    Codec ID/Info                            : Picture based subtitle format used on BDs/HD-DVDs
    Duration                                 : 1 h 33 min
    Bit rate                                 : 24.8 kb/s
    Count of elements                        : 1918
    Stream size                              : 16.7 MiB (1%)
    Title                                    : Thai PGS
    Language                                 : Thai
    Default                                  : Yes
    Forced                                   : No
    
    Text #2
    ID                                       : 6
    Format                                   : PGS
    Muxing mode                              : zlib
    Codec ID                                 : S_HDMV/PGS
    Codec ID/Info                            : Picture based subtitle format used on BDs/HD-DVDs
    Duration                                 : 1 h 33 min
    Bit rate                                 : 28.1 kb/s
    Count of elements                        : 1796
    Stream size                              : 18.7 MiB (1%)
    Title                                    : English PGS
    Language                                 : English
    Default                                  : No
    Forced                                   : No




    Download:cornfile
    http://cornfile.com/a4d11185qprm
    Download:filecondo
    http://www.filecondo.com/dl.php?f=n5cd231L1Ony

  2. The Following 5 Users Say Thank You to Duckload.us For This Useful Post:

    gaszolineskywalker (02-16-2021), jackjangri (02-03-2021), NaiWan (01-20-2021), noi54 (01-20-2021), Wesker_TOT (01-20-2021)

  3. #2
    Senior Member
    สมัครเมื่อ
    Jul 2013
    โพสต์
    1,784
    Thanks
    0
    Thanked 0 Times in 0 Posts
    ดูแรกๆงงมาก ในยุคนั้น พอท้ายๆเรื่องมันส์ พอจบ เฮ้ย มันเจ๋ง

  4. #3
    Senior Member
    สมัครเมื่อ
    Dec 2013
    โพสต์
    2,580
    Thanks
    4,501
    Thanked 0 Times in 0 Posts
    ขอบคุณนะครับ...

  5. #4
    Senior Member
    สมัครเมื่อ
    Oct 2012
    โพสต์
    1,439
    Thanks
    2,369
    Thanked 0 Times in 0 Posts
    ขอบคุณครับ

+ ตอบกลับกระทู้

ข้อมูลกระทู้

Users Browsing this Thread

ในขณะนี้มี 1 ท่านดูกระทู้อยู่. (0 สมาชิกและ 1 ผู้เยี่ยมชม)

     

กฎการโพสต์ข้อความ

  • ท่าน ไม่สามารถ ตั้งกระทู้ใหม่ได้
  • ท่าน ไม่สามารถ ตอบกระทู้ได้
  • ท่าน ไม่สามารถ แนบไฟล์ได้
  • ท่าน ไม่สามารถ แก้ไขข้อความโพสต์ได้
  • BB code สถานะ เปิด
  • Smilies สถานะ เปิด
  • [IMG] สถานะ เปิด
  • HTML สถานะ ปิด