+ ตอบกลับกระทู้
สรุปผลการค้นหา 1 ถึง 3 จากทั้งหมด 3
  1. #1
    Administrators รูปส่วนตัว Duckload.us
    สมัครเมื่อ
    Dec 2010
    โพสต์
    123,989
    Thanks
    7
    Thanked 128,958 Times in 57,331 Posts

    Thumbs up [ฝรั่ง]-Malasana 32 (2020) - 32 มาลาซานญ่า ย่านผีอยู่ [พากย์:สเปน5.1 - ไทย5.1][SUB:อังกฤษ - ไทย]-WEB-DL.H.264.1080p. [Master]-[พากย์ไทย บรรยายไทย]



    เรื่องย่อ....เรื่องราวเกิดขึ้นในปี 1976 เมื่อครอบครัว อัลเมโด้ ย้ายจากบ้านหลังเก่าย่านชนบท เข้ามายังบ้านใหม่ย่านมาลาซานย่า กรุงมาดริด
    พวกเขาทุกคนตื่นเต้นที่ได้มาใช้ชีวิตใหม่ในเมืองหลวง กลางช่วงเปลี่ยนผ่านสำคัญของประเทศสเปน แต่มีสิ่งหนึ่งที่พวกเขายังไม่รู้ นั่นคือ
    บ้านหลังใหม่ของพวกเขา มีบางอย่างแถมมาด้วย ซึ่ง มัน ไม่ต้อนรับผู้มาเยือนใหม่หน้าไหนทั้งนั้น! และมันพร้อมที่จะเปลี่ยน การเริ่มต้นใหม่
    ให้กลายเป็น ฝันร้าย ที่คุณไม่มีทางลืมมันได้

    Format : Matroska
    Format version : Version 4
    File size : 7.97 GiB
    Duration : 1 h 44 min
    Overall bit rate : 10.9 Mb/s
    Movie name : Malasana 32 - 2020 ([email protected])
    Encoded date : UTC 2021-01-18 16:22:44
    Writing application : mkvmerge v52.0.0 ('Secret For The Mad') 64-bit
    Writing library : libebml v1.4.1 + libmatroska v1.6.2
    Cover : Yes
    Attachments : Cover.jpg

    Video
    ID : 1
    Format : AVC
    Format/Info : Advanced Video Codec
    Format profile : [email protected]
    Format settings : CABAC / 3 Ref Frames
    Format settings, CABAC : Yes
    Format settings, Reference frames : 3 frames
    Format settings, GOP : M=3, N=24
    Codec ID : V_MPEG4/ISO/AVC
    Duration : 1 h 44 min
    Bit rate : 9 652 kb/s
    Width : 1 920 pixels
    Height : 804 pixels
    Display aspect ratio : 2.40:1
    Frame rate mode : Constant
    Frame rate : 24.000 FPS
    Color space : YUV
    Chroma subsampling : 4:2:0
    Bit depth : 8 bits
    Scan type : Progressive
    Bits/(Pixel*Frame) : 0.261
    Stream size : 7.06 GiB (89%)
    Language : Spanish
    Default : Yes
    Forced : No
    Color range : Limited
    Color primaries : BT.709
    Transfer characteristics : BT.709
    Matrix coefficients : BT.709

    Audio #1
    ID : 2
    Format : E-AC-3
    Format/Info : Enhanced AC-3
    Commercial name : Dolby Digital Plus
    Codec ID : A_EAC3
    Duration : 1 h 44 min
    Bit rate mode : Constant
    Bit rate : 768 kb/s
    Channel(s) : 6 channels
    Channel layout : L R C LFE Ls Rs
    Sampling rate : 48.0 kHz
    Frame rate : 31.250 FPS (1536 SPF)
    Compression mode : Lossy
    Delay relative to video : -5 ms
    Stream size : 575 MiB (7%)
    Language : Spanish
    Service kind : Complete Main
    Default : Yes
    Forced : Yes

    Audio #2
    ID : 3
    Format : AC-3
    Format/Info : Audio Coding 3
    Commercial name : Dolby Digital
    Codec ID : A_AC3
    Duration : 1 h 44 min
    Bit rate mode : Constant
    Bit rate : 448 kb/s
    Channel(s) : 6 channels
    Channel layout : L R C LFE Ls Rs
    Sampling rate : 48.0 kHz
    Frame rate : 31.250 FPS (1536 SPF)
    Compression mode : Lossy
    Delay relative to video : -5 ms
    Stream size : 335 MiB (4%)
    Language : Thai
    Service kind : Complete Main
    Default : No
    Forced : No

    Text #1
    ID : 4
    Format : PGS
    Muxing mode : zlib
    Codec ID : S_HDMV/PGS
    Codec ID/Info : Picture based subtitle format used on BDs/HD-DVDs
    Duration : 1 h 42 min
    Bit rate : 16.2 kb/s
    Count of elements : 1594
    Stream size : 11.9 MiB (0%)
    Language : English
    Default : Yes
    Forced : Yes

    Text #2
    ID : 5
    Format : PGS
    Muxing mode : zlib
    Codec ID : S_HDMV/PGS
    Codec ID/Info : Picture based subtitle format used on BDs/HD-DVDs
    Duration : 1 h 42 min
    Bit rate : 16.2 kb/s
    Count of elements : 1594
    Stream size : 11.9 MiB (0%)
    Language : English
    Default : No
    Forced : No

    Text #3
    ID : 6
    Format : PGS
    Muxing mode : zlib
    Codec ID : S_HDMV/PGS
    Codec ID/Info : Picture based subtitle format used on BDs/HD-DVDs
    Duration : 1 h 43 min
    Bit rate : 6 741 b/s
    Count of elements : 1786
    Stream size : 5.00 MiB (0%)
    Title : Sub Thai DVD
    Language : Thai
    Default : No
    Forced : No

    Text #4
    ID : 7
    Format : PGS
    Muxing mode : zlib
    Codec ID : S_HDMV/PGS
    Codec ID/Info : Picture based subtitle format used on BDs/HD-DVDs
    Duration : 1 h 43 min
    Bit rate : 6 741 b/s
    Count of elements : 1786
    Stream size : 5.00 MiB (0%)
    Title : Sub Thai DVD
    Language : Thai
    Default : No
    Forced : No





    Download:cornfile
    http://cornfile.com/5an9bxr7b0jq
    Download:filecondo
    http://www.filecondo.com/dl.php?f=92a0211L2bq0

  2. The Following User Says Thank You to Duckload.us For This Useful Post:

    pntum (02-14-2021)

  3. #2
    Senior Member
    สมัครเมื่อ
    Jul 2013
    โพสต์
    1,802
    Thanks
    0
    Thanked 0 Times in 0 Posts
    ขอบคุณครับ

  4. #3
    Senior Member รูปส่วนตัว pntum
    สมัครเมื่อ
    Dec 2012
    โพสต์
    424
    Thanks
    403
    Thanked 0 Times in 0 Posts
    ...Thanks...

+ ตอบกลับกระทู้

ข้อมูลกระทู้

Users Browsing this Thread

ในขณะนี้มี 1 ท่านดูกระทู้อยู่. (0 สมาชิกและ 1 ผู้เยี่ยมชม)

     

กฎการโพสต์ข้อความ

  • ท่าน ไม่สามารถ ตั้งกระทู้ใหม่ได้
  • ท่าน ไม่สามารถ ตอบกระทู้ได้
  • ท่าน ไม่สามารถ แนบไฟล์ได้
  • ท่าน ไม่สามารถ แก้ไขข้อความโพสต์ได้
  • BB code สถานะ เปิด
  • Smilies สถานะ เปิด
  • [IMG] สถานะ เปิด
  • HTML สถานะ ปิด