+ ตอบกลับกระทู้
สรุปผลการค้นหา 1 ถึง 6 จากทั้งหมด 6
  1. #1
    Administrators รูปส่วนตัว Duckload.us
    สมัครเมื่อ
    Dec 2010
    โพสต์
    123,989
    Thanks
    7
    Thanked 128,958 Times in 57,331 Posts

    Thumbs up [ฝรั่ง]-The Witches (2020) : แม่มดของ โรอัลด์ดาห์ล-WEB-DL.H.264.1080p. [Master]-[พากย์ไทยมาสเตอร์ ไม่มีบรรยาย]



    The Witches เล่าเรื่องโลกใบหนึ่งที่มีแม่มดร้ายอยู่ทั่วโลก โดยอุปนิสัยของแม่มดนั้นจะเกลียดเด็ก ทำให้มีแม่มดรวมกลุ่มกันและหาวิธีสาปเด็กให้กลายเป็น สัตว์ต่างๆ แต่แล้วกลุ่มแม่มดที่เพิ่งคิดค้นยาสาปให้เด็กกลายเป็ นหนูต้องมาเจอกับ ยายและหลานคู่หนึ่ง ซึ่งผู้เป็นยายเคยหลุดรอดจากเงื้อมมือของแม่มดมาแล้ว ตอนเด็ก ทำให้สามารถรู้ทันกลุ่มแม่มด และทำให้ยายหลานคู่นี้ต้องหาทางหยุดแผนร้ายของกลุ่มแ ม่มดที่กำลังจะทำให้เด็กทุกคนถูกยาสาป และกลายร่างเป็นหนู

    Format : Matroska
    Format version : Version 2
    File size : 3.93 GiB
    Duration : 1 h 43 min
    Overall bit rate mode : Constant
    Overall bit rate : 5 413 kb/s
    Movie name : The Witches (2020) แม่มด ของ โรอัลด์ ดาห์ล.trim01
    Encoded date : UTC 2021-01-23 05:59:26
    Writing application : DVDFab 11.0.8.5
    Writing library : libebml v1.3.4 + libmatroska v1.4.5

    Video
    ID : 1
    Format : AVC
    Format/Info : Advanced Video Codec
    Format profile : [email protected]
    Format settings : CABAC / 1 Ref Frames
    Format settings, CABAC : Yes
    Format settings, Reference frames : 1 frame
    Format settings, GOP : M=1, N=24
    Codec ID : V_MPEG4/ISO/AVC
    Duration : 1 h 43 min
    Bit rate mode : Constant
    Bit rate : 5 220 kb/s
    Nominal bit rate : 5 552 kb/s
    Width : 1 920 pixels
    Height : 804 pixels
    Display aspect ratio : 2.40:1
    Frame rate mode : Constant
    Frame rate : 23.976 (24000/1001) FPS
    Color space : YUV
    Chroma subsampling : 4:2:0
    Bit depth : 8 bits
    Scan type : Progressive
    Bits/(Pixel*Frame) : 0.141
    Stream size : 3.79 GiB (96%)
    Default : Yes
    Forced : No
    Color range : Limited
    Color primaries : BT.709
    Transfer characteristics : BT.709
    Matrix coefficients : BT.709

    Audio
    ID : 2
    Format : AC-3
    Format/Info : Audio Coding 3
    Commercial name : Dolby Digital
    Codec ID : A_AC3
    Duration : 1 h 43 min
    Bit rate mode : Constant
    Bit rate : 192 kb/s
    Channel(s) : 2 channels
    Channel layout : L R
    Sampling rate : 48.0 kHz
    Frame rate : 31.250 FPS (1536 SPF)
    Compression mode : Lossy
    Stream size : 143 MiB (4%)
    Service kind : Complete Main
    Default : Yes
    Forced : No





    Download:cornfile
    http://cornfile.com/ne7sb9ob250w
    Download:filecondo
    http://www.filecondo.com/dl.php?f=X175c21L3fcv

  2. The Following 8 Users Say Thank You to Duckload.us For This Useful Post:

    amorn wichian (01-27-2021), F2UMaH6398 (01-26-2021), gaszolineskywalker (02-15-2021), jackjangri (02-03-2021), noi54 (01-25-2021), sawara (01-25-2021), Tellmon (01-25-2021), Wesker_TOT (01-25-2021)

  3. #2
    Senior Member รูปส่วนตัว gozilla02
    สมัครเมื่อ
    Jul 2012
    โพสต์
    248
    Thanks
    94
    Thanked 1 Time in 1 Post
    ขอบคุณจ้า หนังสนุกประจำปี 64
    http://rabbitfileloveav.blogspot.com/ โหลดหนัง AV 18+ใหม่ล่าสุด อัพเดตทุกวัน มีทุกแนว 1080P Cornfile 10000 เรื่อง

  4. #3
    Senior Member
    สมัครเมื่อ
    Dec 2013
    โพสต์
    2,583
    Thanks
    4,503
    Thanked 0 Times in 0 Posts
    ขอบคุณนะครับ...

  5. #4
    Senior Member
    สมัครเมื่อ
    Dec 2013
    โพสต์
    400
    Thanks
    329
    Thanked 0 Times in 0 Posts
    ขอบคุณครับ

  6. #5
    Senior Member
    สมัครเมื่อ
    Jul 2013
    โพสต์
    1,802
    Thanks
    0
    Thanked 0 Times in 0 Posts
    ขอบคุณครับ

  7. #6
    Senior Member
    สมัครเมื่อ
    Oct 2012
    โพสต์
    1,442
    Thanks
    2,372
    Thanked 0 Times in 0 Posts
    ขอบคุณครับ

+ ตอบกลับกระทู้

ข้อมูลกระทู้

Users Browsing this Thread

ในขณะนี้มี 1 ท่านดูกระทู้อยู่. (0 สมาชิกและ 1 ผู้เยี่ยมชม)

     

กฎการโพสต์ข้อความ

  • ท่าน ไม่สามารถ ตั้งกระทู้ใหม่ได้
  • ท่าน ไม่สามารถ ตอบกระทู้ได้
  • ท่าน ไม่สามารถ แนบไฟล์ได้
  • ท่าน ไม่สามารถ แก้ไขข้อความโพสต์ได้
  • BB code สถานะ เปิด
  • Smilies สถานะ เปิด
  • [IMG] สถานะ เปิด
  • HTML สถานะ ปิด