+ ตอบกลับกระทู้
สรุปผลการค้นหา 1 ถึง 3 จากทั้งหมด 3
  1. #1
    Administrators รูปส่วนตัว Duckload.us
    สมัครเมื่อ
    Dec 2010
    โพสต์
    124,061
    Thanks
    7
    Thanked 128,997 Times in 57,348 Posts

    Thumbs up [ฝรั่ง]-[Netflix] Fate The Winx Saga Season 1 [เสียง:อังกฤษ-ไทย AC-3 ][บรรยาย: ไทย PGS/SRT-อังกฤษ SRT Netflix]-WEB-DL.H.264.1080p. [From HD-TV]-[พากย์ไทย บรรยายไทย]




    Fate: The Winx Saga Season 1
    เรื่องย่อ กลุ่มวัยรุ่นที่มุ่งมั่นจะพัฒนาพลังวิเศษในตัวให้เก่ งกล้า ต้องหัดรับมือกับการชิงดีชิงเด่น ปัญหาหัวใจ และวิชาเหนือธรรมชาติทั้งหลายในอัลเฟีย โรงเรียนประจำสำหรับผู้ฝึกเวทมนตร์

    Video
    ID : 1
    Format : AVC
    Format/Info : Advanced Video Codec
    Format profile : [email protected]
    Format settings : CABAC / 4 Ref Frames
    Format settings, CABAC : Yes
    Format settings, Reference fra : 4 frames
    Codec ID : V_MPEG4/ISO/AVC
    Duration : 53 min 42 s
    Bit rate : 1 759 kb/s
    Width : 1 920 pixels
    Height : 1 080 pixels
    Display aspect ratio : 16:9
    Frame rate mode : Constant
    Frame rate : 24.000 FPS
    Color space : YUV
    Chroma subsampling : 4:2:0
    Bit depth : 8 bits
    Scan type : Progressive
    Bits/(Pixel*Frame) : 0.035
    Stream size : 676 MiB (58%)
    Default : Yes
    Forced : No

    Audio #1
    ID : 2
    Format : E-AC-3
    Format/Info : Enhanced AC-3
    Commercial name : Dolby Digital Plus
    Codec ID : A_EAC3
    Duration : 53 min 42 s
    Bit rate mode : Constant
    Bit rate : 640 kb/s
    Channel(s) : 6 channels
    Channel layout : L R C LFE Ls Rs
    Sampling rate : 48.0 kHz
    Frame rate : 31.250 FPS (1536 SPF)
    Compression mode : Lossy
    Stream size : 246 MiB (21%)
    Title : [Thai AC-3]
    Language : Thai
    Service kind : Complete Main
    Default : Yes
    Forced : No

    Audio #2
    ID : 3
    Format : E-AC-3
    Format/Info : Enhanced AC-3
    Commercial name : Dolby Digital Plus
    Codec ID : A_EAC3
    Duration : 53 min 42 s
    Bit rate mode : Constant
    Bit rate : 640 kb/s
    Channel(s) : 6 channels
    Channel layout : L R C LFE Ls Rs
    Sampling rate : 48.0 kHz
    Frame rate : 31.250 FPS (1536 SPF)
    Compression mode : Lossy
    Stream size : 246 MiB (21%)
    Title : [English AC-3]
    Language : English
    Service kind : Complete Main
    Default : No
    Forced : No

    Text #1
    ID : 4
    Format : PGS
    Muxing mode : zlib
    Codec ID : S_HDMV/PGS
    Codec ID/Info : Picture based subtitle format used on BDs/HD-DVDs
    Duration : 51 min 53 s
    Bit rate : 560 b/s
    Count of elements : 32
    Stream size : 213 KiB (0%)
    Title : [Thai PGS Forced Netflix]
    Language : Thai
    Default : Yes
    Forced : No

    Text #2
    ID : 5
    Format : PGS
    Muxing mode : zlib
    Codec ID : S_HDMV/PGS
    Codec ID/Info : Picture based subtitle format used on BDs/HD-DVDs
    Duration : 51 min 53 s
    Bit rate : 26.2 kb/s
    Count of elements : 1310
    Stream size : 9.74 MiB (1%)
    Title : [Thai PGS Netflix]
    Language : Thai
    Default : No
    Forced : No

    Text #3
    ID : 6
    Format : UTF-8
    Codec ID : S_TEXT/UTF8
    Codec ID/Info : UTF-8 Plain Text
    Duration : 51 min 53 s
    Bit rate : 2 b/s
    Count of elements : 16
    Stream size : 1.05 KiB (0%)
    Title : [Thai SRT Forced]
    Language : Thai
    Default : No
    Forced : No

    Text #4
    ID : 7
    Format : UTF-8
    Codec ID : S_TEXT/UTF8
    Codec ID/Info : UTF-8 Plain Text
    Duration : 51 min 53 s
    Bit rate : 144 b/s
    Count of elements : 655
    Stream size : 55.1 KiB (0%)
    Title : [Thai SRT]
    Language : Thai
    Default : No
    Forced : No

    Text #5
    ID : 8
    Format : UTF-8
    Codec ID : S_TEXT/UTF8
    Codec ID/Info : UTF-8 Plain Text
    Duration : 51 min 56 s
    Bit rate : 74 b/s
    Count of elements : 819
    Stream size : 28.3 KiB (0%)
    Title : [English SRT]
    Language : English
    Default : No
    Forced : No





    Download:cornfile
    Fate.The.Winx.Saga.S01E01.สู่สายธารและป่าภูต.1080p .mkv - 1.1 GB
    Fate.The.Winx.Saga.S01E02.ไม่มีใครเป็นคนอื่นไกล.10 80p.mkv - 1.0 GB
    Fate.The.Winx.Saga.S01E03.ความปรารถนาที่หนาหนัก.10 80p.mkv - 1.1 GB
    Fate.The.Winx.Saga.S01E04.นางฟ้าผู้บอบช้ำ.1080p.mk v - 951.1 MB
    Fate.The.Winx.Saga.S01E05.โรยราไปกับความจริง.1080p .mkv - 1.0 GB
    Fate.The.Winx.Saga.S01E06.หัวใจที่บ้าคลั่ง.1080p.m kv - 1.2 GB

    Download:filecondo
    1 http://www.filecondo.com/dl.php?f=w5bd4e1L3VoI
    2 http://www.filecondo.com/dl.php?f=j9537c1L3Vrp
    3 http://www.filecondo.com/dl.php?f=W83ecb1L3VrW
    4 http://www.filecondo.com/dl.php?f=Tb5d111L3VsT
    5 http://www.filecondo.com/dl.php?f=pa65b81L3Vu0
    6 http://www.filecondo.com/dl.php?f=L6b0c21L3VuP

  2. #2
    Senior Member
    สมัครเมื่อ
    Jul 2013
    โพสต์
    265
    Thanks
    0
    Thanked 0 Times in 0 Posts
    ขอบคุณมากๆๆๆๆๆเลยนะคะ

  3. #3
    Senior Member
    สมัครเมื่อ
    Jul 2012
    โพสต์
    7,329
    Thanks
    0
    Thanked 0 Times in 0 Posts
    ขอบคุณมากจ้า

+ ตอบกลับกระทู้

ข้อมูลกระทู้

Users Browsing this Thread

ในขณะนี้มี 1 ท่านดูกระทู้อยู่. (0 สมาชิกและ 1 ผู้เยี่ยมชม)

     

กฎการโพสต์ข้อความ

  • ท่าน ไม่สามารถ ตั้งกระทู้ใหม่ได้
  • ท่าน ไม่สามารถ ตอบกระทู้ได้
  • ท่าน ไม่สามารถ แนบไฟล์ได้
  • ท่าน ไม่สามารถ แก้ไขข้อความโพสต์ได้
  • BB code สถานะ เปิด
  • Smilies สถานะ เปิด
  • [IMG] สถานะ เปิด
  • HTML สถานะ ปิด