+ ตอบกลับกระทู้
สรุปผลการค้นหา 1 ถึง 5 จากทั้งหมด 5
  1. #1
    Administrators รูปส่วนตัว Duckload.us
    สมัครเมื่อ
    Dec 2010
    โพสต์
    124,048
    Thanks
    7
    Thanked 128,993 Times in 57,346 Posts

    Thumbs up [ฝรั่ง]-[ใหม่ร้อนๆ-เสียงไทยมาสเตอร์ 5.1] Wonder.Woman.1984.2020.วันเดอร์วูเมน.1080p.H.264.I MAX.WEB-DL[พากย์ไทยมาสเตอร์ 5.1+อังกฤษ 5.1][บรรยายไทย+อังกฤษ]-WEB-DL.H.264.1080p. [Modified]-[พากย์ไทย บรรยายไทย]



    Wonder Woman 1984 จะพาทุกคนมุ่งหน้าสู่ช่วงปี 1980 ไปกับการผจญภัยครั้งใหม่บนจอยักษ์ของ วันเดอร์ วูแมน ที่คราวนี้เธอต้องรับมือกับเหล่าวายร้ายหน้าใหม่อย่า ง แม็กซ์ ลอร์ด และ ชีตาห์ รังสรรค์ผลงานโดย แพตตี้ เจนกินส์ ผู้กำกับฯ เดิมจากภาคแรก โดยมี กัล กาโดท กลับมารับบท ไดอาน่า ปริ้นซ์ หรือ วันเดอร์ วูแมน พร้อมทีมนักแสดงมากฝีมือ อาทิ คริส ไพน์ ผู้รับบท สตีฟ เทรเวอร์, คริสเตน วิก ผู้รับบท ชีตาห์, เพโดร ปาสคาล ผู้รับบท แมกซ์เวลล์ ลอร์ด, โรบิน ไรท์ ผู้รับบท แอนไทโอพี และคอนนี นีลเซน ผู้รับบท ราชินีฮิพโพลิต้า

    Format : Matroska
    Format version : Version 4
    File size : 11.4 GiB
    Duration : 2 h 31 min
    Overall bit rate : 10.8 Mb/s
    Encoded date : UTC 2021-01-25 15:14:57
    Writing application : mkvmerge v52.0.0 ('Secret For The Mad') 64-bit
    Writing library : libebml v1.4.1 + libmatroska v1.6.2

    Video
    ID : 1
    Format : AVC
    Format/Info : Advanced Video Codec
    Format profile : [email protected]
    Format settings : CABAC / 4 Ref Frames
    Format settings, CABAC : Yes
    Format settings, Reference frames : 4 frames
    Codec ID : V_MPEG4/ISO/AVC
    Duration : 2 h 31 min
    Bit rate mode : Constant
    Bit rate : 10 000 kb/s
    Width : 1 920 pixels
    Height : 1 040 pixels
    Display aspect ratio : 1.890
    Original display aspect ratio : 1.85:1
    Frame rate mode : Constant
    Frame rate : 23.976 (24000/1001) FPS
    Color space : YUV
    Chroma subsampling : 4:2:0
    Bit depth : 8 bits
    Scan type : Progressive
    Bits/(Pixel*Frame) : 0.209
    Stream size : 10.2 GiB (89%)
    Default : Yes
    Forced : No
    Color range : Limited
    Color primaries : BT.709
    Transfer characteristics : BT.709
    Matrix coefficients : BT.709

    Audio #1
    ID : 2
    Format : AAC LC
    Format/Info : Advanced Audio Codec Low Complexity
    Codec ID : A_AAC-2
    Duration : 2 h 31 min
    Bit rate : 384 kb/s
    Channel(s) : 6 channels
    Channel layout : C L R Ls Rs LFE
    Sampling rate : 48.0 kHz
    Frame rate : 46.875 FPS (1024 SPF)
    Compression mode : Lossy
    Stream size : 416 MiB (4%)
    Language : Thai
    Default : Yes
    Forced : Yes

    Audio #2
    ID : 3
    Format : E-AC-3 JOC
    Format/Info : Enhanced AC-3 with Joint Object Coding
    Commercial name : Dolby Digital Plus with Dolby Atmos
    Codec ID : A_EAC3
    Duration : 2 h 31 min
    Bit rate mode : Constant
    Bit rate : 768 kb/s
    Channel(s) : 6 channels
    Channel layout : L R C LFE Ls Rs
    Sampling rate : 48.0 kHz
    Frame rate : 31.250 FPS (1536 SPF)
    Compression mode : Lossy
    Delay relative to video : 24 ms
    Stream size : 830 MiB (7%)
    Language : English
    Service kind : Complete Main
    Default : No
    Forced : No
    Complexity index : 16
    Number of dynamic objects : 15
    Bed channel count : 1 channel
    Bed channel configuration : LFE

    Text #1
    ID : 4
    Format : UTF-8
    Codec ID : S_TEXT/UTF8
    Codec ID/Info : UTF-8 Plain Text
    Duration : 2 h 27 min
    Bit rate : 96 b/s
    Count of elements : 1822
    Stream size : 104 KiB (0%)
    Title : Thai
    Language : Thai
    Default : Yes
    Forced : No

    Text #2
    ID : 5
    Format : UTF-8
    Codec ID : S_TEXT/UTF8
    Codec ID/Info : UTF-8 Plain Text
    Duration : 2 h 26 min
    Bit rate : 46 b/s
    Count of elements : 1862
    Stream size : 50.2 KiB (0%)
    Language : English
    Default : No
    Forced : No

    Text #3
    ID : 6
    Format : UTF-8
    Codec ID : S_TEXT/UTF8
    Codec ID/Info : UTF-8 Plain Text
    Duration : 2 h 26 min
    Bit rate : 55 b/s
    Count of elements : 2175
    Stream size : 59.6 KiB (0%)
    Title : SDH
    Language : English
    Default : No
    Forced : No





    4.0 GB
    Download:cornfile
    http://cornfile.com/p80y665tbzsw
    Download:filecondo
    http://www.filecondo.com/dl.php?f=ab4b541L4iay

    4.4 GB
    Download:cornfile
    http://cornfile.com/qjnnfn9voryx
    Download:filecondo
    http://www.filecondo.com/dl.php?f=hf3fb11L4GFr

    11.4 GB
    Download:cornfile
    http://cornfile.com/6bfzqxu6oefh
    Download:filecondo
    http://www.filecondo.com/dl.php?f=5987d81L4egl

  2. The Following 8 Users Say Thank You to Duckload.us For This Useful Post:

    agg001 (01-31-2021), bigbang06 (01-27-2021), chirt (01-26-2021), F2UMaH6398 (01-26-2021), kappa (01-27-2021), noi54 (01-26-2021), sawara (01-26-2021), Tellmon (01-29-2021)

  3. #2
    Senior Member
    สมัครเมื่อ
    Oct 2013
    โพสต์
    1,884
    Thanks
    0
    Thanked 0 Times in 0 Posts
    ขอบคุณครับ

  4. #3
    Senior Member
    สมัครเมื่อ
    Dec 2013
    โพสต์
    400
    Thanks
    329
    Thanked 0 Times in 0 Posts
    ขอบคุณครับ

  5. #4
    Junior Member
    สมัครเมื่อ
    Aug 2017
    โพสต์
    10
    Thanks
    2
    Thanked 0 Times in 0 Posts
    แบบ 4 gb ไม่มีทั้งซับไทย ซับอังกฤษเลยค่ะ
    แก้ไขครั้งล่าสุดโดย afire_kaka : 01-27-2021 เมื่อ 06:09 PM

  6. #5
    Senior Member
    สมัครเมื่อ
    Jan 2011
    โพสต์
    775
    Thanks
    1,052
    Thanked 0 Times in 0 Posts
    ขอบคุณครับ

+ ตอบกลับกระทู้

ข้อมูลกระทู้

Users Browsing this Thread

ในขณะนี้มี 1 ท่านดูกระทู้อยู่. (0 สมาชิกและ 1 ผู้เยี่ยมชม)

     

กฎการโพสต์ข้อความ

  • ท่าน ไม่สามารถ ตั้งกระทู้ใหม่ได้
  • ท่าน ไม่สามารถ ตอบกระทู้ได้
  • ท่าน ไม่สามารถ แนบไฟล์ได้
  • ท่าน ไม่สามารถ แก้ไขข้อความโพสต์ได้
  • BB code สถานะ เปิด
  • Smilies สถานะ เปิด
  • [IMG] สถานะ เปิด
  • HTML สถานะ ปิด