ในครั้งนี้เล่าถึงกลุ่มหนุ่มสาวที่ไปเดินเที่ยวป่ากั น และได้รับการเตือนล่วงหน้าเอาไว้แล้วว่า ห้ามออกนอกเส้นทางโดยเด็ดขาก แต่พวกเขาก็ยังหาเรื่องรุกล้ำเข้าไปในเขตแดนของพวก “ฟาวด์เดชัน” ชุมชนลึกลับที่ซ่อนตัวเองอยู่ในป่า และพร้อมฆ่าคนที่ล่วงล้ำดินแดนเข้าไปเพื่อปกป้องวิถี ชีวิตของพวกเขา

Format : Matroska
Format version : Version 2
File size : 4.01 GiB
Duration : 1 h 50 min
Overall bit rate mode : Constant
Overall bit rate : 5 214 kb/s
Movie name : Wrong Turn (2021) หวีดเขมือบคน 8
Encoded date : UTC 2021-02-18 02:34:02
Writing application : DVDFab 11.0.8.5
Writing library : libebml v1.3.4 + libmatroska v1.4.5

Video
ID : 1
Format : AVC
Format/Info : Advanced Video Codec
Format profile : [email protected]
Format settings : CABAC / 1 Ref Frames
Format settings, CABAC : Yes
Format settings, Reference frames : 1 frame
Format settings, GOP : M=1, N=24
Codec ID : V_MPEG4/ISO/AVC
Duration : 1 h 50 min
Bit rate mode : Constant
Bit rate : 5 020 kb/s
Nominal bit rate : 5 580 kb/s
Width : 1 920 pixels
Height : 808 pixels
Display aspect ratio : 2.40:1
Frame rate mode : Constant
Frame rate : 23.976 (24000/1001) FPS
Color space : YUV
Chroma subsampling : 4:2:0
Bit depth : 8 bits
Scan type : Progressive
Bits/(Pixel*Frame) : 0.135
Stream size : 3.86 GiB (96%)
Default : Yes
Forced : No
Color range : Limited
Color primaries : BT.709
Transfer characteristics : BT.709
Matrix coefficients : BT.709

Audio
ID : 2
Format : AC-3
Format/Info : Audio Coding 3
Commercial name : Dolby Digital
Codec ID : A_AC3
Duration : 1 h 50 min
Bit rate mode : Constant
Bit rate : 192 kb/s
Channel(s) : 2 channels
Channel layout : L R
Sampling rate : 48.0 kHz
Frame rate : 31.250 FPS (1536 SPF)
Compression mode : Lossy
Stream size : 151 MiB (4%)
Language : English
Service kind : Complete Main
Default : Yes
Forced : No





Download:cornfile
http://cornfile.com/tcbj4zfabcp4
Download:filecondo
http://www.filecondo.com/dl.php?f=Pc849b1LcFZb