+ ตอบกลับกระทู้
สรุปผลการค้นหา 1 ถึง 4 จากทั้งหมด 4
  1. #1
    Administrators รูปส่วนตัว Duckload.us
    สมัครเมื่อ
    Dec 2010
    โพสต์
    124,036
    Thanks
    7
    Thanked 128,987 Times in 57,341 Posts

    Thumbs up [ฝรั่ง]-Monster Hunter 2020 1080p WEBRip DD5 1 x264 EN THR[พากย์:ไทยโรง2.0-อังกฤษ][SUB:ไทย-อังกฤษ]1080p. [Modified]-[พากย์ไทยโรง]



    เบื้องหลังโลกของเรา ยังมีอีกโลกหนึ่ง โลกของอสุรกายที่อันตรายและทรงพลัง ครองอาณาเขตของพวกมันด้วยความดุดัน พายุทะเลทรายที่คาดไม่ถึงได้พา ร้อยโทอาร์เทมิส (มิลล่า โจโววิช) และทีมของเธอ (ทิป ที.ไอ. แฮร์ริส, มีแกน กู้ด และ ดิเอโก้ โบนิต้า) ไปสู่โลกใหม่ เหล่าทหารต้องตกตะลึงเมื่อได้พบว่าสภาพแวดล้อมที่โหด เหี้ยมนี้เป็นที่อยู่ของอสุรกายยักษ์ที่น่าสะพรึงกลั ว และปืนก็ทาอะไรพวกมันไม่ได้

    Format : Matroska
    Format version : Version 4
    File size : 5.15 GiB
    Duration : 1 h 43 min
    Overall bit rate : 7 153 kb/s
    Movie name : Monster.Hunter.2020.1080p.WEBRip.DD5.1.x264.EN.THR .kiatplk
    Encoded date : UTC 2021-02-17 13:40:31
    Writing application : mkvmerge v50.0.0 ('Awakenings') 64-bit
    Writing library : libebml v1.4.0 + libmatroska v1.6.2

    Video
    ID : 1
    Format : AVC
    Format/Info : Advanced Video Codec
    Format profile : [email protected]
    Format settings : CABAC / 2 Ref Frames
    Format settings, CABAC : Yes
    Format settings, Reference frames : 2 frames
    Codec ID : V_MPEG4/ISO/AVC
    Duration : 1 h 43 min
    Bit rate : 6 304 kb/s
    Width : 1 920 pixels
    Height : 1 080 pixels
    Display aspect ratio : 16:9
    Frame rate mode : Constant
    Frame rate : 23.976 (24000/1001) FPS
    Color space : YUV
    Chroma subsampling : 4:2:0
    Bit depth : 8 bits
    Scan type : Progressive
    Bits/(Pixel*Frame) : 0.127
    Stream size : 4.54 GiB (88%)
    Writing library : x264 core 155 r2901 7d0ff22
    Language : English
    Default : Yes
    Forced : No
    Color range : Limited
    Color primaries : BT.709
    Transfer characteristics : BT.709
    Matrix coefficients : BT.709

    Audio #1
    ID : 2
    Format : E-AC-3
    Format/Info : Enhanced AC-3
    Commercial name : Dolby Digital Plus
    Codec ID : A_EAC3
    Duration : 1 h 43 min
    Bit rate mode : Constant
    Bit rate : 640 kb/s
    Channel(s) : 6 channels
    Channel layout : L R C LFE Ls Rs
    Sampling rate : 48.0 kHz
    Frame rate : 31.250 FPS (1536 SPF)
    Compression mode : Lossy
    Stream size : 472 MiB (9%)
    Title : DDP 5.1
    Language : English
    Service kind : Complete Main
    Default : Yes
    Forced : No

    Audio #2
    ID : 8
    Format : AC-3
    Format/Info : Audio Coding 3
    Commercial name : Dolby Digital
    Codec ID : A_AC3
    Duration : 1 h 43 min
    Bit rate mode : Constant
    Bit rate : 192 kb/s
    Channel(s) : 2 channels
    Channel layout : L R
    Sampling rate : 48.0 kHz
    Frame rate : 31.250 FPS (1536 SPF)
    Compression mode : Lossy
    Stream size : 142 MiB (3%)
    Title : THR
    Language : Thai
    Service kind : Complete Main
    Default : No
    Forced : No

    Text #1
    ID : 3
    Format : PGS
    Muxing mode : zlib
    Codec ID : S_HDMV/PGS
    Codec ID/Info : Picture based subtitle format used on BDs/HD-DVDs
    Duration : 1 h 41 min
    Bit rate : 8 495 b/s
    Count of elements : 982
    Stream size : 6.18 MiB (0%)
    Language : Thai
    Default : Yes
    Forced : No

    Text #2
    ID : 4
    Format : PGS
    Muxing mode : zlib
    Codec ID : S_HDMV/PGS
    Codec ID/Info : Picture based subtitle format used on BDs/HD-DVDs
    Duration : 1 h 34 min
    Bit rate : 14.2 kb/s
    Count of elements : 948
    Stream size : 9.61 MiB (0%)
    Language : Thai
    Default : No
    Forced : No

    Text #3
    ID : 5
    Format : PGS
    Muxing mode : zlib
    Codec ID : S_HDMV/PGS
    Codec ID/Info : Picture based subtitle format used on BDs/HD-DVDs
    Duration : 1 h 42 min
    Bit rate : 17.5 kb/s
    Count of elements : 2012
    Stream size : 12.8 MiB (0%)
    Language : English
    Default : No
    Forced : No

    Text #4
    ID : 6
    Format : VobSub
    Muxing mode : zlib
    Codec ID : S_VOBSUB
    Codec ID/Info : Picture based subtitle format used on DVDs
    Duration : 1 h 34 min
    Bit rate : 2 966 b/s
    Count of elements : 474
    Stream size : 2.00 MiB (0%)
    Language : Thai
    Default : No
    Forced : No

    Text #5
    ID : 7
    Format : UTF-8
    Codec ID : S_TEXT/UTF8
    Codec ID/Info : UTF-8 Plain Text
    Duration : 1 h 29 min
    Bit rate : 43 b/s
    Count of elements : 471
    Stream size : 28.6 KiB (0%)
    Language : Thai
    Default : No
    Forced : No





    5.2 GB
    Download:cornfile
    http://cornfile.com/3cd1pspysmqp
    Download:filecondo
    http://www.filecondo.com/dl.php?f=Q15c5a1LcFTh

    2.4 GB
    Download:cornfile
    http://cornfile.com/1hwa0h61iu56
    Download:filecondo
    http://www.filecondo.com/dl.php?f=X26dbf1LcIfa

  2. The Following 2 Users Say Thank You to Duckload.us For This Useful Post:

    sawara (02-19-2021), Wesker_TOT (02-19-2021)

  3. #2
    Senior Member
    สมัครเมื่อ
    Jun 2014
    โพสต์
    221
    Thanks
    0
    Thanked 0 Times in 0 Posts
    โหลดไม่ได้สักไฟล์เลยครับ

  4. #3
    Senior Member
    สมัครเมื่อ
    Dec 2013
    โพสต์
    2,596
    Thanks
    4,515
    Thanked 0 Times in 0 Posts
    ขอบคุณครับ...

  5. #4
    Senior Member
    สมัครเมื่อ
    Dec 2013
    โพสต์
    400
    Thanks
    329
    Thanked 0 Times in 0 Posts
    ขอบคุณครับ

+ ตอบกลับกระทู้

ข้อมูลกระทู้

Users Browsing this Thread

ในขณะนี้มี 1 ท่านดูกระทู้อยู่. (0 สมาชิกและ 1 ผู้เยี่ยมชม)

     

กฎการโพสต์ข้อความ

  • ท่าน ไม่สามารถ ตั้งกระทู้ใหม่ได้
  • ท่าน ไม่สามารถ ตอบกระทู้ได้
  • ท่าน ไม่สามารถ แนบไฟล์ได้
  • ท่าน ไม่สามารถ แก้ไขข้อความโพสต์ได้
  • BB code สถานะ เปิด
  • Smilies สถานะ เปิด
  • [IMG] สถานะ เปิด
  • HTML สถานะ ปิด