+ ตอบกลับกระทู้
สรุปผลการค้นหา 1 ถึง 4 จากทั้งหมด 4
  1. #1
    Administrators รูปส่วนตัว Duckload.us
    สมัครเมื่อ
    Dec 2010
    โพสต์
    123,727
    Thanks
    7
    Thanked 128,753 Times in 57,289 Posts

    Lightbulb [ญี่ปุ่น]-Arifureta Shokugyou de Sekai Saikyou อาชีพกระจอกแล้วทําไมยังไงข้าก็เทพ 1-13 END [BD-Rip 1080p HEVC x265 10bit TrueHD] [เสียงญี่ปุ่น-อังกฤษ/ซับอังกฤษ-ไทย PGS][email protected]



    Quote:
    ไฟล์นี้จะมีเสียงญี่ปุ่นและอังกฤษแบบ TrueHD ส่วนซับจะมีอังกฤษและไทย ในส่วนของซับไทยจะเป็นแบบ SRT และ PGS (Angsana New) โดยผมเอามาจาก BiliBili

    Quote:
    Modified by Meguno


    รายละเอียดไฟล์
    Quote:
    General
    Unique ID : 258040548952288927169081852629182559419 (0xC220CD507BD1E0DDEA84E797DCBFB4BB)
    Complete name : C:UsersMegunoDownloadsBittorrentArifureta Shokugyou de Sekai Saikyou [BD]Arifureta Shokugyou de Sekai Saikyou Ep.01 - The Monster of the Abyss [BD-Rip 1080p x265 10bit TrueHD].mkv
    Format : Matroska
    Format version : Version 4
    File size : 1.69 GiB
    Duration : 23 min 37 s
    Overall bit rate mode : Variable
    Overall bit rate : 10.3 Mb/s
    Encoded date : UTC 2021-02-18 01:35:54
    Writing application : mkvmerge v53.0.0 ('Fool's Gold') 64-bit
    Writing library : libebml v1.4.1 + libmatroska v1.6.2

    Video
    ID : 1
    Format : HEVC
    Format/Info : High Efficiency Video Coding
    Format profile : Main [email protected]@Main
    Codec ID : V_MPEGH/ISO/HEVC
    Duration : 23 min 37 s
    Bit rate : 7 702 kb/s
    Width : 1 920 pixels
    Height : 1 080 pixels
    Display aspect ratio : 16:9
    Frame rate mode : Constant
    Frame rate : 23.976 (24000/1001) FPS
    Color space : YUV
    Chroma subsampling : 4:2:0
    Bit depth : 10 bits
    Bits/(Pixel*Frame) : 0.155
    Stream size : 1.27 GiB (75%)
    Writing library : x265 3.2.1+1-b5c86a64bbbe:[Windows][GCC 9.2.0][64 bit] 10bit
    Encoding settings : cpuid=1111039 / frame-threads=4 / numa-pools=16 / wpp / no-pmode / no-pme / no-psnr / no-ssim / log-level=2 / input-csp=1 / input-res=1920x1080 / interlace=0 / total-frames=0 / level-idc=0 / high-tier=1 / uhd-bd=0 / ref=6 / no-allow-non-conformance / no-repeat-headers / annexb / no-aud / no-hrd / info / hash=0 / no-temporal-layers / open-gop / min-keyint=24 / keyint=240 / gop-lookahead=0 / bframes=16 / b-adapt=2 / b-pyramid / bframe-bias=0 / rc-lookahead=50 / lookahead-slices=4 / scenecut=40 / radl=0 / no-splice / no-intra-refresh / ctu=32 / min-cu-size=8 / no-rect / no-amp / max-tu-size=32 / tu-inter-depth=1 / tu-intra-depth=3 / limit-tu=0 / rdoq-level=2 / dynamic-rd=0.00 / no-ssim-rd / signh-i-d-e / tskip / nr-intra=0 / nr-inter=0 / no-constrained-intra / no-strong-intra-smoothing / max-merge=3 / limit-refs=3 / limit-modes / me=3 / subme=3 / merange=57 / temporal-mvp / no-hme / weightp / no-weightb / no-analyze-src-pics / deblock=1:1 / no-sao / no-sao-non-deblock / rd=4 / selective-sao=0 / no-early-skip / rskip / no-fast-intra / tskip-fast / no-cu-lossless / no-b-intra / no-splitrd-skip / rdpenalty=0 / psy-rd=0.80 / psy-rdoq=2.00 / no-rd-refine / no-lossless / cbqpoffs=0 / crqpoffs=0 / rc=crf / crf=18.0 / qcomp=0.60 / qpstep=4 / stats-write=0 / stats-read=0 / ipratio=1.40 / pbratio=1.30 / aq-mode=3 / aq-strength=1.25 / cutree / zone-count=0 / no-strict-cbr / qg-size=32 / no-rc-grain / qpmax=69 / qpmin=0 / no-const-vbv / sar=1 / overscan=0 / videoformat=5 / range=0 / colorprim=1 / transfer=1 / colormatrix=1 / chromaloc=0 / display-window=0 / cll=0,0 / min-luma=0 / max-luma=1023 / log2-max-poc-lsb=8 / vui-timing-info / vui-hrd-info / slices=1 / no-opt-qp-pps / no-opt-ref-list-length-pps / no-multi-pass-opt-rps / scenecut-bias=0.05 / no-opt-cu-delta-qp / no-aq-motion / no-hdr / no-hdr-opt / no-dhdr10-opt / no-idr-recovery-sei / analysis-reuse-level=5 / scale-factor=0 / refine-intra=0 / refine-inter=0 / refine-mv=1 / refine-ctu-distortion=0 / no-limit-sao / ctu-info=0 / no-lowpass-dct / refine-analysis-type=0 / copy-pic=1 / max-ausize-factor=1.0 / no-dynamic-refine / no-single-sei / no-hevc-aq / no-svt / no-field / qp-adaptation-range=1.00
    Language : Japanese
    Default : Yes
    Forced : No
    Color range : Limited
    Color primaries : BT.709
    Transfer characteristics : BT.709
    Matrix coefficients : BT.709

    Audio #1
    ID : 2
    Format : MLP FBA
    Format/Info : Meridian Lossless Packing FBA
    Commercial name : Dolby TrueHD
    Codec ID : A_TRUEHD
    Duration : 23 min 37 s
    Bit rate mode : Variable
    Bit rate : 1 178 kb/s
    Maximum bit rate : 1 536 kb/s
    Channel(s) : 2 channels
    Channel layout : L R
    Sampling rate : 48.0 kHz
    Frame rate : 1 200.000 FPS (40 SPF)
    Compression mode : Lossless
    Stream size : 199 MiB (11%)
    Language : English
    Default : No
    Forced : No

    Audio #2
    ID : 3
    Format : MLP FBA
    Format/Info : Meridian Lossless Packing FBA
    Commercial name : Dolby TrueHD
    Codec ID : A_TRUEHD
    Duration : 23 min 37 s
    Bit rate mode : Variable
    Bit rate : 1 210 kb/s
    Maximum bit rate : 1 596 kb/s
    Channel(s) : 2 channels
    Channel layout : L R
    Sampling rate : 48.0 kHz
    Frame rate : 1 200.000 FPS (40 SPF)
    Compression mode : Lossless
    Stream size : 204 MiB (12%)
    Language : Japanese
    Default : Yes
    Forced : No

    Text #1
    ID : 4
    Format : PGS
    Muxing mode : zlib
    Codec ID : S_HDMV/PGS
    Codec ID/Info : Picture based subtitle format used on BDs/HD-DVDs
    Duration : 22 min 51 s
    Bit rate : 6 908 b/s
    Count of elements : 52
    Stream size : 1.13 MiB (0%)
    Title : Signs / Songs
    Language : English
    Default : No
    Forced : No

    Text #2
    ID : 5
    Format : PGS
    Muxing mode : zlib
    Codec ID : S_HDMV/PGS
    Codec ID/Info : Picture based subtitle format used on BDs/HD-DVDs
    Duration : 22 min 58 s
    Bit rate : 39.0 kb/s
    Count of elements : 486
    Stream size : 6.41 MiB (0%)
    Title : Dialogue
    Language : English
    Default : No
    Forced : No

    Text #3
    ID : 6
    Format : UTF-8
    Codec ID : S_TEXT/UTF8
    Codec ID/Info : UTF-8 Plain Text
    Duration : 21 min 40 s
    Bit rate : 117 b/s
    Count of elements : 248
    Stream size : 18.7 KiB (0%)
    Language : Thai
    Default : No
    Forced : No

    Text #4
    ID : 7
    Format : PGS
    Muxing mode : zlib
    Codec ID : S_HDMV/PGS
    Codec ID/Info : Picture based subtitle format used on BDs/HD-DVDs
    Duration : 21 min 40 s
    Bit rate : 37.4 kb/s
    Count of elements : 496
    Stream size : 5.80 MiB (0%)
    Title : Thai PGS by BiliBili
    Language : Thai
    Default : Yes
    Forced : No

    Menu
    00:00:00.000 : en:Chapter 01
    00:00:23.023 : en:Chapter 02
    00:01:53.030 : en:Chapter 03
    00:10:49.107 : en:Chapter 04
    00:21:59.068 : en:Chapter 05
    00:23:29.116 : en:Chapter 06




    อาชีพกระจอกแล้วทำไม ยังไงข้าก็เทพ ฮาจิเมะ วัยรุ่นหนุ่มเกมโอตาคุ ได้ถูกเทพจากต่างโลกอัญเชิญมาพร้อมกับเพื่อนร่วมชั้น หลายคน จำเป็นอาศัยในโลกนี้และช่วยกอบกู้โลก ฮาจิเมะ เริ่มด้วยอาชีพนักสร้างอาวุธที่ไม่มีประโยชน์ในการต่ อสู้แล้วยังถูกเหยียดหยามจากเพื่อนร่วมชั้น ที่ส่วนใหญ่ที่อยู่ในระดับนักรบและผู้กล้า แต่ภายหลังโศกนาฏกรรมครั้งใหญ่ที่เกิดกับเพื่อนร่วมช ั้น ฮาจิเมะที่พยายามเอาชีวิตรอด กลายเป็นจุดเปลี่ยนชีวิตของเขา จนกลายเป็นนักสร้างอาวุธที่มีความสามารถสุดแกร่งไป

    01 http://www.filecondo.com/dl.php?f=Pf7d1a1LcWMi
    02 http://www.filecondo.com/dl.php?f=s3163b1LcWNi
    03 http://www.filecondo.com/dl.php?f=Sbcd5e1LcWOe
    04 http://www.filecondo.com/dl.php?f=u272c01LcWPR
    05 http://www.filecondo.com/dl.php?f=g5ca921LcWRK
    5.5 http://www.filecondo.com/dl.php?f=A72b421LcWTz
    06 http://www.filecondo.com/dl.php?f=n6c8091LcWUG
    07 http://www.filecondo.com/dl.php?f=T455cb1LcWYV
    08 http://www.filecondo.com/dl.php?f=Vc74291LcX0Y
    09 http://www.filecondo.com/dl.php?f=Uae79a1LcX29
    10 http://www.filecondo.com/dl.php?f=fff0241LcX3c
    11 http://www.filecondo.com/dl.php?f=T9ea3d1LcX3u
    12 http://www.filecondo.com/dl.php?f=te11721LcX4r
    13 http://www.filecondo.com/dl.php?f=s51a211LcX5q

  2. #2
    Junior Member
    สมัครเมื่อ
    Feb 2020
    โพสต์
    4
    Thanks
    0
    Thanked 0 Times in 0 Posts
    ไม่มีตอน 13

  3. #3
    Senior Member
    สมัครเมื่อ
    Jul 2013
    โพสต์
    1,783
    Thanks
    0
    Thanked 0 Times in 0 Posts
    ขอบคุณครับ

  4. #4

+ ตอบกลับกระทู้

ข้อมูลกระทู้

Users Browsing this Thread

ในขณะนี้มี 1 ท่านดูกระทู้อยู่. (0 สมาชิกและ 1 ผู้เยี่ยมชม)

     

กฎการโพสต์ข้อความ

  • ท่าน ไม่สามารถ ตั้งกระทู้ใหม่ได้
  • ท่าน ไม่สามารถ ตอบกระทู้ได้
  • ท่าน ไม่สามารถ แนบไฟล์ได้
  • ท่าน ไม่สามารถ แก้ไขข้อความโพสต์ได้
  • BB code สถานะ เปิด
  • Smilies สถานะ เปิด
  • [IMG] สถานะ เปิด
  • HTML สถานะ ปิด