+ ตอบกลับกระทู้
สรุปผลการค้นหา 1 ถึง 3 จากทั้งหมด 3
  1. #1
    Administrators รูปส่วนตัว Duckload.us
    สมัครเมื่อ
    Dec 2010
    โพสต์
    124,036
    Thanks
    7
    Thanked 128,980 Times in 57,336 Posts

    Thumbs up [ฝรั่ง]-[NETFLIX] I Care a Lot (2021) ห่วง... แต่หวังฮุบ-WEB-DL.EAC-3.1080p. [Modified]-[พากย์อังกฤษ 5.1 ไทย 5.1 บรรยายไทย-อังกฤษ]



    เรื่องย่อ

    ผู้ดูแลตามกฎหมายที่ศาลจัดหาหลอกยักยอกทรัพย์สินจากล ูกความวัยชราจนติดอยู่ใต้การดูแลของเธอ แต่เป้าหมายรายสุดท้ายกลับมีไม้เด็ดที่คาดไม่ถึง


    Format : Matroska
    Format version : Version 4
    File size : 5.25 GiB
    Duration : 1 h 59 min
    Overall bit rate : 6 292 kb/s
    Encoded date : UTC 2021-02-19 13:27:45
    Writing application : mkvmerge v53.0.0 ('Fool's Gold') 64-bit
    Writing library : libebml v1.4.1 + libmatroska v1.6.2

    Video
    ID : 1
    Format : AVC
    Format/Info : Advanced Video Codec
    Format profile : [email protected]
    Format settings : CABAC / 3 Ref Frames
    Format settings, CABAC : Yes
    Format settings, Reference frames : 3 frames
    Codec ID : V_MPEG4/ISO/AVC
    Duration : 1 h 58 min
    Bit rate : 4 991 kb/s
    Width : 1 920 pixels
    Height : 800 pixels
    Display aspect ratio : 2.40:1
    Frame rate mode : Constant
    Frame rate : 24.000 FPS
    Color space : YUV
    Chroma subsampling : 4:2:0
    Bit depth : 8 bits
    Scan type : Progressive
    Bits/(Pixel*Frame) : 0.135
    Stream size : 4.12 GiB (78%)
    Language : English
    Default : Yes
    Forced : No

    Audio #1
    ID : 2
    Format : E-AC-3
    Format/Info : Enhanced AC-3
    Commercial name : Dolby Digital Plus
    Codec ID : A_EAC3
    Duration : 1 h 58 min
    Bit rate mode : Constant
    Bit rate : 640 kb/s
    Channel(s) : 6 channels
    Channel layout : L R C LFE Ls Rs
    Sampling rate : 48.0 kHz
    Frame rate : 31.250 FPS (1536 SPF)
    Compression mode : Lossy
    Stream size : 541 MiB (10%)
    Title : E-AC3 English
    Language : English
    Service kind : Complete Main
    Default : Yes
    Forced : No

    Audio #2
    ID : 3
    Format : E-AC-3
    Format/Info : Enhanced AC-3
    Commercial name : Dolby Digital Plus
    Codec ID : A_EAC3
    Duration : 1 h 59 min
    Bit rate mode : Constant
    Bit rate : 640 kb/s
    Channel(s) : 6 channels
    Channel layout : L R C LFE Ls Rs
    Sampling rate : 48.0 kHz
    Frame rate : 31.250 FPS (1536 SPF)
    Compression mode : Lossy
    Stream size : 547 MiB (10%)
    Title : E-AC3 Thai
    Language : Thai
    Service kind : Complete Main
    Default : No
    Forced : No

    Text #1
    ID : 4
    Format : VobSub
    Muxing mode : zlib
    Codec ID : S_VOBSUB
    Codec ID/Info : Picture based subtitle format used on DVDs
    Duration : 1 h 57 min
    Bit rate : 10.8 kb/s
    Count of elements : 1313
    Stream size : 9.09 MiB (0%)
    Title : Sub Thai 1080p
    Language : Thai
    Default : No
    Forced : No

    Text #2
    ID : 5
    Format : UTF-8
    Codec ID : S_TEXT/UTF8
    Codec ID/Info : UTF-8 Plain Text
    Duration : 1 h 57 min
    Bit rate : 112 b/s
    Count of elements : 1313
    Stream size : 96.5 KiB (0%)
    Title : Sub Thai SRT
    Language : Thai
    Default : No
    Forced : No

    Text #3
    ID : 6
    Format : PGS
    Muxing mode : zlib
    Codec ID : S_HDMV/PGS
    Codec ID/Info : Picture based subtitle format used on BDs/HD-DVDs
    Duration : 1 h 57 min
    Bit rate : 32.1 kb/s
    Count of elements : 2626
    Stream size : 27.0 MiB (1%)
    Title : Sub Thai PGS
    Language : Thai
    Default : No
    Forced : No

    Text #4
    ID : 7
    Format : PGS
    Muxing mode : zlib
    Codec ID : S_HDMV/PGS
    Codec ID/Info : Picture based subtitle format used on BDs/HD-DVDs
    Duration : 1 h 57 min
    Bit rate : 53.5 kb/s
    Count of elements : 2626
    Stream size : 44.9 MiB (1%)
    Title : Sub Thai PGS NETFLIX
    Language : Thai
    Default : Yes
    Forced : No

    Text #5
    ID : 8
    Format : VobSub
    Muxing mode : zlib
    Codec ID : S_VOBSUB
    Codec ID/Info : Picture based subtitle format used on DVDs
    Duration : 1 h 54 min
    Bit rate : 12.1 kb/s
    Count of elements : 1480
    Stream size : 9.97 MiB (0%)
    Title : Sub English 1080p
    Language : English
    Default : No
    Forced : No

    Text #6
    ID : 9
    Format : UTF-8
    Codec ID : S_TEXT/UTF8
    Codec ID/Info : UTF-8 Plain Text
    Duration : 1 h 54 min
    Bit rate : 55 b/s
    Count of elements : 1480
    Stream size : 46.6 KiB (0%)
    Title : Sub English SRT
    Language : English
    Default : No
    Forced : No

    Text #7
    ID : 10
    Format : PGS
    Muxing mode : zlib
    Codec ID : S_HDMV/PGS
    Codec ID/Info : Picture based subtitle format used on BDs/HD-DVDs
    Duration : 1 h 54 min
    Bit rate : 33.2 kb/s
    Count of elements : 2960
    Stream size : 27.3 MiB (1%)
    Title : Sub English PGS
    Language : English
    Default : No
    Forced : No





    Download:cornfile
    http://cornfile.com/lymtpxpkbvyx fix เสียงและซับไทยดีเลย์
    Download:filecondo
    http://www.filecondo.com/dl.php?f=y62d411LdJCh fix เสียงและซับไทยดีเลย์

  2. The Following 3 Users Say Thank You to Duckload.us For This Useful Post:

    jackjangri (02-23-2021), noi54 (02-22-2021), sawara (02-21-2021)

  3. #2
    Senior Member
    สมัครเมื่อ
    Jul 2013
    โพสต์
    1,807
    Thanks
    0
    Thanked 0 Times in 0 Posts
    ขอบคุณครับ

  4. #3
    Senior Member
    สมัครเมื่อ
    Dec 2013
    โพสต์
    400
    Thanks
    329
    Thanked 0 Times in 0 Posts
    ขอบคุณครับ

+ ตอบกลับกระทู้

ข้อมูลกระทู้

Users Browsing this Thread

ในขณะนี้มี 1 ท่านดูกระทู้อยู่. (0 สมาชิกและ 1 ผู้เยี่ยมชม)

     

กฎการโพสต์ข้อความ

  • ท่าน ไม่สามารถ ตั้งกระทู้ใหม่ได้
  • ท่าน ไม่สามารถ ตอบกระทู้ได้
  • ท่าน ไม่สามารถ แนบไฟล์ได้
  • ท่าน ไม่สามารถ แก้ไขข้อความโพสต์ได้
  • BB code สถานะ เปิด
  • Smilies สถานะ เปิด
  • [IMG] สถานะ เปิด
  • HTML สถานะ ปิด