+ ตอบกลับกระทู้
สรุปผลการค้นหา 1 ถึง 4 จากทั้งหมด 4
  1. #1
    Administrators รูปส่วนตัว Duckload.us
    สมัครเมื่อ
    Dec 2010
    โพสต์
    124,036
    Thanks
    7
    Thanked 128,980 Times in 57,336 Posts

    Thumbs up [ญี่ปุ่น]-Mosaic Japan-HDTV.H.264.720p. [From HD-TV]-[Soundtrack บรรยายไทย (แปล)]*ไอ้หนุ่มออกจากงานที่โตเกียว กลับบ้านเกิดปรากฏว่าถูกบริษัททำ AV ยึดไปชะแล้ว ละครเร่ื่องนี้ 18+ นะครับ**



    ***ภาพยนตร์เรื่องนี้เหมาะกับผู้มีอายุ 15 ปีขึ้นไป มีภาพพฤติกรรมทางเพศและเนื้อหาที่ส่อไปทางลามกอนาจาร ***
    ซึเนะมัตสึ ริอิจิ (นากายามะ เคนโตะ) ออกจากบริษัทหลักทรัพย์ในโตเกียวแล้วกลับมาบ้านเกิด พ่อแม่เขาเสนอให้เขาทำงานใน GALAXYZ Group ซึ่งจ้างชาวเมืองเป็นพนักงาน โดยมีประธานบริษัทคือ โยชิอากิ คุอิ (ทาคาฮาชิ อิซเซ) แม้ที่นี่ดูผิวเผินเหมือนบริษัททั่วไปที่ทำหลายธุรกิ จ แต่ธุรกิจหลักจริงๆ คือผลิตหนัง AV และริอิจิเจ้ากรรมดันไปตกหลุมรักนักแสดง AV ที่ดูใสซื่อ โมโมโกะ คิอุจิ (ฮามาคาวะ ฟุมิเอะ) จึงพยายามช่วยเหลือเธอ

    Cast

    Kento Nagayama
    Issey Takahashi
    Fumie Hamakawa
    Kenji Anan

    ขอบคุณ Rising sub ครับ

    Format : Matroska
    Format version : Version 4
    File size : 414 MiB
    Duration : 25 min 29 s
    Overall bit rate : 2 272 kb/s
    Encoded date : UTC 2021-02-19 13:06:00
    Writing application : mkvmerge v9.6.0 ('Slave To Your Mind') 64bit
    Writing library : libebml v1.3.4 + libmatroska v1.4.5

    Video
    ID : 1
    Format : AVC
    Format/Info : Advanced Video Codec
    Format profile : [email protected]
    Format settings : CABAC / 4 Ref Frames
    Format settings, CABAC : Yes
    Format settings, Reference frames : 4 frames
    Codec ID : V_MPEG4/ISO/AVC
    Duration : 25 min 29 s
    Bit rate : 2 189 kb/s
    Width : 1 280 pixels
    Height : 720 pixels
    Display aspect ratio : 16:9
    Frame rate mode : Constant
    Frame rate : 23.976 (24000/1001) FPS
    Color space : YUV
    Chroma subsampling : 4:2:0
    Bit depth : 8 bits
    Scan type : Progressive
    Bits/(Pixel*Frame) : 0.099
    Stream size : 399 MiB (96%)
    Writing library : x264 core 148 r2721 72d53ab
    Encoding settings : cabac=1 / ref=3 / deblock=1:0:0 / analyse=0x3:0x113 / me=hex / subme=7 / psy=1 / psy_rd=1.00:0.00 / mixed_ref=1 / me_range=16 / chroma_me=1 / trellis=1 / 8x8dct=1 / cqm=0 / deadzone=21,11 / fast_pskip=1 / chroma_qp_offset=-2 / threads=6 / lookahead_threads=1 / sliced_threads=0 / nr=0 / decimate=1 / interlaced=0 / bluray_compat=0 / constrained_intra=0 / bframes=3 / b_pyramid=2 / b_adapt=1 / b_bias=0 / direct=1 / weightb=1 / open_gop=0 / weightp=2 / keyint=250 / keyint_min=23 / scenecut=40 / intra_refresh=0 / rc_lookahead=40 / rc=crf / mbtree=1 / crf=19.0 / qcomp=0.60 / qpmin=0 / qpmax=69 / qpstep=4 / ip_ratio=1.40 / aq=1:1.00
    Default : Yes
    Forced : No

    Audio
    ID : 2
    Format : AAC LC
    Format/Info : Advanced Audio Codec Low Complexity
    Codec ID : A_AAC-2
    Duration : 25 min 29 s
    Bit rate : 81.1 kb/s
    Channel(s) : 2 channels
    Channel layout : L R
    Sampling rate : 48.0 kHz
    Frame rate : 46.875 FPS (1024 SPF)
    Compression mode : Lossy
    Delay relative to video : 9 ms
    Stream size : 14.8 MiB (4%)
    Language : English
    Default : No
    Forced : No



    Download:cornfile
    Mosaic Japan 01.mkv - 414.4 MB
    Mosaic Japan 02.mp4 - 410.4 MB
    Mosaic Japan 03.mkv - 430.9 MB
    Mosaic Japan 04.mkv - 404.2 MB
    Mosaic Japan 05end.mkv - 417.1 MB

    Download:filecondo
    1 http://www.filecondo.com/dl.php?f=Mb52e81LebnC
    2 http://www.filecondo.com/dl.php?f=F18c791LeboO
    3 http://www.filecondo.com/dl.php?f=H7861e1Lebpy
    4 http://www.filecondo.com/dl.php?f=g6526e1Lebqv
    5 http://www.filecondo.com/dl.php?f=O28d6d1Lebrx

  2. The Following User Says Thank You to Duckload.us For This Useful Post:

    jackjangri (02-24-2021)

  3. #2
    Senior Member
    สมัครเมื่อ
    Oct 2013
    โพสต์
    1,884
    Thanks
    0
    Thanked 0 Times in 0 Posts
    ขอบคุณครับ

  4. #3
    Senior Member
    สมัครเมื่อ
    Jul 2013
    โพสต์
    1,807
    Thanks
    0
    Thanked 0 Times in 0 Posts
    ขอบคุณครับ

  5. #4
    Senior Member
    สมัครเมื่อ
    May 2012
    โพสต์
    1,031
    Thanks
    0
    Thanked 0 Times in 0 Posts
    ขอบคุณครับ

+ ตอบกลับกระทู้

ข้อมูลกระทู้

Users Browsing this Thread

ในขณะนี้มี 1 ท่านดูกระทู้อยู่. (0 สมาชิกและ 1 ผู้เยี่ยมชม)

     

กฎการโพสต์ข้อความ

  • ท่าน ไม่สามารถ ตั้งกระทู้ใหม่ได้
  • ท่าน ไม่สามารถ ตอบกระทู้ได้
  • ท่าน ไม่สามารถ แนบไฟล์ได้
  • ท่าน ไม่สามารถ แก้ไขข้อความโพสต์ได้
  • BB code สถานะ เปิด
  • Smilies สถานะ เปิด
  • [IMG] สถานะ เปิด
  • HTML สถานะ ปิด