+ ตอบกลับกระทู้
สรุปผลการค้นหา 1 ถึง 2 จากทั้งหมด 2
  1. #1
    Administrators รูปส่วนตัว Duckload.us
    สมัครเมื่อ
    Dec 2010
    โพสต์
    125,109
    Thanks
    7
    Thanked 130,096 Times in 57,692 Posts

    Thumbs up [ร้อนๆ!เสียงไทยมาสเตอร์]Monster.Hunter.2020.1080p.WEBRip.DD5.1.x264.EN.TH. No-sub[เสียงไทย-อังกฤษ][ไม่มี-บรรยาย]



    เบื้องหลังโลกของเรา ยังมีอีกโลกหนึ่ง โลกของอสุรกายที่อันตรายและทรงพลัง ครองอาณาเขตของพวกมันด้วยความดุดัน พายุทะเลทรายที่คาดไม่ถึงได้พา ร้อยโทอาร์เทมิส (มิลล่า โจโววิช) และทีมของเธอ (ทิป ที.ไอ. แฮร์ริส, มีแกน กู้ด และ ดิเอโก้ โบนิต้า) ไปสู่โลกใหม่ เหล่าทหารต้องตกตะลึงเมื่อได้พบว่าสภาพแวดล้อมที่โหด เหี้ยมนี้เป็นที่อยู่ของอสุรกายยักษ์ที่น่าสะพรึงกลั ว และปืนก็ทาอะไรพวกมันไม่ได้


    Format : Matroska
    Format version : Version 4
    File size : 5.28 GiB
    Duration : 1 h 43 min
    Overall bit rate : 7 330 kb/s
    Movie name : Monster.Hunter.2020.1080p.WEBRip.DD5.1.x264.EN.TH. No-sub.kiatplk
    Encoded date : UTC 2021-02-25 00:05:51
    Writing application : mkvmerge v50.0.0 ('Awakenings') 64-bit
    Writing library : libebml v1.4.0 + libmatroska v1.6.2

    Video
    ID : 2
    Format : AVC
    Format/Info : Advanced Video Codec
    Format profile : [email protected]
    Format settings : CABAC / 2 Ref Frames
    Format settings, CABAC : Yes
    Format settings, Reference frames : 2 frames
    Codec ID : V_MPEG4/ISO/AVC
    Duration : 1 h 43 min
    Bit rate : 6 304 kb/s
    Width : 1 920 pixels
    Height : 1 080 pixels
    Display aspect ratio : 16:9
    Frame rate mode : Constant
    Frame rate : 23.976 (24000/1001) FPS
    Color space : YUV
    Chroma subsampling : 4:2:0
    Bit depth : 8 bits
    Scan type : Progressive
    Bits/(Pixel*Frame) : 0.127
    Stream size : 4.54 GiB (86%)
    Writing library : x264 core 155 r2901 7d0ff22
    Language : English
    Default : Yes
    Forced : No
    Color range : Limited
    Color primaries : BT.709
    Transfer characteristics : BT.709
    Matrix coefficients : BT.709

    Audio #1
    ID : 1
    Format : AC-3
    Format/Info : Audio Coding 3
    Commercial name : Dolby Digital
    Codec ID : A_AC3
    Duration : 1 h 43 min
    Bit rate mode : Constant
    Bit rate : 640 kb/s
    Channel(s) : 6 channels
    Channel layout : L R C LFE Ls Rs
    Sampling rate : 48.0 kHz
    Frame rate : 31.250 FPS (1536 SPF)
    Compression mode : Lossy
    Stream size : 472 MiB (9%)
    Title : Thai_Master
    Language : Thai
    Service kind : Complete Main
    Default : Yes
    Forced : Yes

    Audio #2
    ID : 3
    Format : AC-3
    Format/Info : Audio Coding 3
    Commercial name : Dolby Digital
    Codec ID : A_AC3
    Duration : 1 h 43 min
    Bit rate mode : Constant
    Bit rate : 384 kb/s
    Channel(s) : 6 channels
    Channel layout : L R C LFE Ls Rs
    Sampling rate : 48.0 kHz
    Frame rate : 31.250 FPS (1536 SPF)
    Compression mode : Lossy
    Stream size : 283 MiB (5%)
    Title : DD 5.1
    Language : English
    Service kind : Complete Main
    Default : No
    Forced : No





    5.28 GB 1080p
    http://cornfile.com/m6c82czwo2l3
    http://www.filecondo.com/dl.php?f=xd3aed1Lf7um

    11.9 GB 1080p
    http://cornfile.com/d73tqy2o8dd1
    http://www.filecondo.com/dl.php?f=n9de0f1Lf6Xk

    7.75 GB 2160p
    http://cornfile.com/6ikfazkhiz6o
    http://www.filecondo.com/dl.php?f=Yd73be1Lf7xM

  2. The Following 4 Users Say Thank You to Duckload.us For This Useful Post:

    bigbang06 (02-26-2021), gozilla02 (02-25-2021), noi54 (02-25-2021), Wesker_TOT (02-25-2021)

  3. #2
    Senior Member
    สมัครเมื่อ
    Dec 2013
    โพสต์
    2,655
    Thanks
    4,575
    Thanked 0 Times in 0 Posts
    ขอบคุณครับ...

+ ตอบกลับกระทู้

ข้อมูลกระทู้

Users Browsing this Thread

ในขณะนี้มี 1 ท่านดูกระทู้อยู่. (0 สมาชิกและ 1 ผู้เยี่ยมชม)

     

กฎการโพสต์ข้อความ

  • ท่าน ไม่สามารถ ตั้งกระทู้ใหม่ได้
  • ท่าน ไม่สามารถ ตอบกระทู้ได้
  • ท่าน ไม่สามารถ แนบไฟล์ได้
  • ท่าน ไม่สามารถ แก้ไขข้อความโพสต์ได้
  • BB code สถานะ เปิด
  • Smilies สถานะ เปิด
  • [IMG] สถานะ เปิด
  • HTML สถานะ ปิด