+ ตอบกลับกระทู้
สรุปผลการค้นหา 1 ถึง 2 จากทั้งหมด 2
  1. #1
    Administrators รูปส่วนตัว Duckload.us
    สมัครเมื่อ
    Dec 2010
    โพสต์
    125,253
    Thanks
    7
    Thanked 130,238 Times in 57,734 Posts

    Thumbs up [ฝรั่ง]-Euphoria (US) Season 1 : ยูโฟเรีย ปี 1-WEB-DL.H.264.1080p. [Hi-def rip from Master]-[พากย์ไทย บรรยายไทย HBO]



    กลุ่มวัยรุ่นวัยว้าวุ่น กับเรื่องราวพัวพันเกี่ยวกับ ยาเสพติด, เซ็กซ์, การค้นหาตัวตน, บาดแผลในจิตใจ, โซเชี่ยลมีเดีย, ความรัก และมิตรภาพ นำแสดงโดย Zendaya (นางเอก Spider-Man: Home Coming, Far From Home) รับบทเป็น รูว์ เด็กสาววัยรุ่นที่กำลังอยู่ในวังวนของการบำบัดยาเสพต ิดและการหาจุดยืนในสังคม จนกระทั่งได้เจอเพื่อนใหม่ จูลย์ Trans Girls หรือสาวประเภทสอง จนก่อเกิดความสัมพันธ์บางอย่างยากจะอธิบาย

    Format : Matroska
    Format version : Version 4
    File size : 1.75 GiB
    Duration : 53 min 53 s
    Overall bit rate mode : Variable
    Overall bit rate : 4 639 kb/s
    Movie name : Euphoria.US.2019.S01E01.Pilot.1080p.AMZN.WEB-DL.x265-Ferdi125
    Encoded date : UTC 2021-02-23 05:58:10
    Writing application : mkvmerge v53.0.0 ('Fool's Gold') 64-bit
    Writing library : libebml v1.4.1 + libmatroska v1.6.2

    Video
    ID : 1
    Format : AVC
    Format/Info : Advanced Video Codec
    Format profile : [email protected]
    Format settings : CABAC / 5 Ref Frames
    Format settings, CABAC : Yes
    Format settings, Reference frames : 5 frames
    Codec ID : V_MPEG4/ISO/AVC
    Duration : 53 min 53 s
    Bit rate mode : Variable
    Bit rate : 3 778 kb/s
    Maximum bit rate : 24.0 Mb/s
    Width : 1 920 pixels
    Height : 1 080 pixels
    Display aspect ratio : 16:9
    Frame rate mode : Constant
    Frame rate : 23.976 (24000/1001) FPS
    Color space : YUV
    Chroma subsampling : 4:2:0
    Bit depth : 8 bits
    Scan type : Progressive
    Bits/(Pixel*Frame) : 0.076
    Stream size : 1.42 GiB (81%)
    Writing library : x264 core 158 r2984
    Encoding settings : cabac=1 / ref=6 / deblock=1:0:0 / analyse=0x3:0x133 / me=umh / subme=8 / psy=1 / psy_rd=1.00:0.00 / mixed_ref=1 / me_range=16 / chroma_me=1 / trellis=0 / 8x8dct=1 / cqm=0 / deadzone=21,11 / fast_pskip=0 / chroma_qp_offset=-2 / threads=34 / lookahead_threads=5 / sliced_threads=0 / nr=0 / decimate=1 / interlaced=0 / bluray_compat=1 / constrained_intra=0 / bframes=3 / b_pyramid=1 / b_adapt=2 / b_bias=0 / direct=3 / weightb=1 / open_gop=0 / weightp=1 / keyint=250 / keyint_min=1 / scenecut=40 / intra_refresh=0 / rc_lookahead=50 / rc=2pass / mbtree=1 / bitrate=3778 / ratetol=1.0 / qcomp=0.60 / qpmin=10 / qpmax=51 / qpstep=4 / cplxblur=20.0 / qblur=0.5 / vbv_maxrate=24000 / vbv_bufsize=24000 / nal_hrd=vbr / filler=0 / ip_ratio=1.40 / aq=1:1.00
    Default : Yes
    Forced : No
    Color range : Limited
    Color primaries : BT.709
    Transfer characteristics : BT.709
    Matrix coefficients : BT.709

    Audio #1
    ID : 2
    Format : AC-3
    Format/Info : Audio Coding 3
    Commercial name : Dolby Digital
    Codec ID : A_AC3
    Duration : 53 min 53 s
    Bit rate mode : Constant
    Bit rate : 224 kb/s
    Channel(s) : 2 channels
    Channel layout : L R
    Sampling rate : 48.0 kHz
    Frame rate : 31.250 FPS (1536 SPF)
    Compression mode : Lossy
    Stream size : 86.3 MiB (5%)
    Language : Thai
    Service kind : Complete Main
    Default : Yes
    Forced : Yes

    Audio #2
    ID : 3
    Format : E-AC-3
    Format/Info : Enhanced AC-3
    Commercial name : Dolby Digital Plus
    Codec ID : A_EAC3
    Duration : 53 min 53 s
    Bit rate mode : Constant
    Bit rate : 640 kb/s
    Channel(s) : 6 channels
    Channel layout : L R C LFE Ls Rs
    Sampling rate : 48.0 kHz
    Frame rate : 31.250 FPS (1536 SPF)
    Compression mode : Lossy
    Stream size : 247 MiB (14%)
    Language : English
    Service kind : Complete Main
    Default : No
    Forced : No

    Text #1
    ID : 4
    Format : UTF-8
    Codec ID : S_TEXT/UTF8
    Codec ID/Info : UTF-8 Plain Text
    Duration : 51 min 39 s
    Bit rate : 138 b/s
    Count of elements : 612
    Stream size : 52.2 KiB (0%)
    Language : Thai
    Default : Yes
    Forced : Yes

    Text #2
    ID : 5
    Format : UTF-8
    Codec ID : S_TEXT/UTF8
    Codec ID/Info : UTF-8 Plain Text
    Duration : 51 min 53 s
    Bit rate : 63 b/s
    Count of elements : 600
    Stream size : 23.9 KiB (0%)
    Language : English
    Default : No
    Forced : No





    Download:cornfile
    Euphoria.(US).S00E01.Trouble.Don't.Last.Always.108 0p.WEB.H264.mkv - 3.4 GB
    Euphoria.(US).S00E02.Fuck.Anyone.Who's.Not.a.Sea.B lob.1080p.WEB.H264.mkv - 2.9 GB
    Euphoria.US.2019.S01E01.Pilot.1080p.AMZN.WEB-DL.x265-Ferdi125.mkv - 1.7 GB
    Euphoria.US.2019.S01E02.Stuntin'.Like.My.Daddy.108 0p.AMZN.WEB-DL.x265-Ferdi125.mkv - 2.0 GB
    Euphoria.US.2019.S01E03.Made.You.Look.1080p.AMZN.W EB-DL.x265-Ferdi125.mkv - 1.9 GB
    Euphoria.US.2019.S01E04.Shook.One.Pt..II.1080p.AMZ N.WEB-DL.x265-Ferdi125.mkv - 1.8 GB
    Euphoria.US.2019.S01E05.Bonnie.and.Clyde.1080p.AMZ N.WEB-DL.x265-Ferdi125.mkv - 1.8 GB
    Euphoria.US.2019.S01E06.The.Next.Episode.1080p.AMZ N.WEB-DL.x265-Ferdi125.mkv - 1.7 GB
    Euphoria.US.2019.S01E07.The.Trials.and.Tribulation s.of.Trying.to.Pee.While.Depressed.1080p.AMZN.WEB-DL.x265-Ferdi125.mkv - 2.0 GB
    Euphoria.US.2019.S01E08.And.Salt.the.Earth.Behind. You.1080p.AMZN.WEB-DL.x265-Ferdi125.mkv - 2.1 GB

    Download:filecondo
    SP 1 ซับไทย
    http://www.filecondo.com/dl.php?f=mf43911LeSSk
    SP 2 ซับไทย
    http://www.filecondo.com/dl.php?f=da71c41LeSVV

    01 http://www.filecondo.com/dl.php?f=V88e211LeSYI
    02 http://www.filecondo.com/dl.php?f=12ce7e1LeSZP
    03 http://www.filecondo.com/dl.php?f=394a3e1LeT19
    04 http://www.filecondo.com/dl.php?f=L2a45b1LeT1K
    05 http://www.filecondo.com/dl.php?f=4cd6131LeT3V
    06 http://www.filecondo.com/dl.php?f=rc812c1LeT4B
    07 http://www.filecondo.com/dl.php?f=Xd5ace1LeT5D
    08 http://www.filecondo.com/dl.php?f=n13ea11LeT6B

  2. #2
    Senior Member
    สมัครเมื่อ
    Jul 2013
    โพสต์
    1,964
    Thanks
    0
    Thanked 0 Times in 0 Posts
    ขอบคุณครับ

+ ตอบกลับกระทู้

ข้อมูลกระทู้

Users Browsing this Thread

ในขณะนี้มี 1 ท่านดูกระทู้อยู่. (0 สมาชิกและ 1 ผู้เยี่ยมชม)

     

กฎการโพสต์ข้อความ

  • ท่าน ไม่สามารถ ตั้งกระทู้ใหม่ได้
  • ท่าน ไม่สามารถ ตอบกระทู้ได้
  • ท่าน ไม่สามารถ แนบไฟล์ได้
  • ท่าน ไม่สามารถ แก้ไขข้อความโพสต์ได้
  • BB code สถานะ เปิด
  • Smilies สถานะ เปิด
  • [IMG] สถานะ เปิด
  • HTML สถานะ ปิด