+ ตอบกลับกระทู้
สรุปผลการค้นหา 1 ถึง 3 จากทั้งหมด 3
  1. #1
    Administrators รูปส่วนตัว Duckload.us
    สมัครเมื่อ
    Dec 2010
    โพสต์
    125,078
    Thanks
    7
    Thanked 130,059 Times in 57,675 Posts

    Angry [ฝรั่ง]-D.O.A. Dead or Alive [1080P] เปรี้ยว เปรียว ดุ (2006) -Encode.H.264.1080p. [Rip]-[พากย์ไทย บรรยายไทย]



    DOA : Dead or Alive เรื่องราว DOA: Dead or Alive คือชื่อโครงการการแข่งขันต่อสู้ ที่รวบรวมนักสู้จากทั่วโลกไว้ด้วยกัน จุดมุ่งหมายของนักสู้แต่ละคนแตกต่างกันไป บางคนต้องการเงิน บางคนอยากดัง บางคนมาตามหาความจริงบางอย่าง นักมวยปล้ำหญิง ทีน่า อาร์มสรอง (เจมี่ เพรสลี่ย์) โจรสาวสุดเซ็กซี่ คริสตี้ (ฮอลลี่ วาลานซ์) เจ้าหญิงเชื้อสายนักสู้ชั้นสูง คาซูมิ (เดวอน อาโอกิ) นักกีฬาผาดโผนสาว เฮเลน่า ดักลาส (ซาร่า คาร์เตอร์) เข้าร่วมการแข่งขันนี้ บนเกาะอันไกลโพ้นแห่งหนึ่ง โดยมีคู่ต่อสู้คือนักสู้ฝีมือดีจากทั่วโลก อาทิ แซค (ไบรอัน ไวท์) เบย์แมน (ดีเร็ก โบเยอร์) ลีออน (ซิลวิโด ซิมัก) เบส อาร์มสตรอง (เควิน แนช) แม็กซ์ (แมทธิว มาส์เดน) และ เรียว ฮายาบุสะ (เคน โคสุงิ) ใครจะเป็นผู้ชนะในการแข่งขัน DOA ที่มีเงินรางวัลสูงถึง 10 ล้านเหรียญสหรัฐ

    General
    Unique ID : 75119848604198309162682335931026585441 (0x38838E7C51CF75569C5895378CBB3761)
    Complete name : C:UsersM2-970DesktopD.O.A. Dead or Alive [1080P][2006].mkv
    Format : Matroska
    Format version : Version 4
    File size : 3.54 GiB
    Duration : 1 h 26 min
    Overall bit rate : 5 884 kb/s
    Encoded date : UTC 2019-06-26 03:43:52
    Writing application : mkvmerge v35.0.0 ('All The Love In The World') 64-bit
    Writing library : libebml v1.3.9 + libmatroska v1.5.2

    Video
    ID : 1
    Format : AVC
    Format/Info : Advanced Video Codec
    Format profile : [email protected]
    Format settings : CABAC / 3 Ref Frames
    Format settings, CABAC : Yes
    Format settings, Reference fra : 3 frames
    Codec ID : V_MPEG4/ISO/AVC
    Duration : 1 h 26 min
    Bit rate : 3 970 kb/s
    Width : 1 920 pixels
    Height : 816 pixels
    Display aspect ratio : 2.35:1
    Frame rate mode : Constant
    Frame rate : 23.976 (24000/1001) FPS
    Color space : YUV
    Chroma subsampling : 4:2:0
    Bit depth : 8 bits
    Scan type : Progressive
    Bits/(Pixel*Frame) : 0.106
    Stream size : 2.39 GiB (67%)
    Default : Yes
    Forced : No

    Audio #1
    ID : 2
    Format : DTS
    Format/Info : Digital Theater Systems
    Codec ID : A_DTS
    Duration : 1 h 26 min
    Bit rate mode : Constant
    Bit rate : 1 510 kb/s
    Channel(s) : 6 channels
    Channel layout : C L R Ls Rs LFE
    Sampling rate : 48.0 kHz
    Frame rate : 93.750 FPS (512 SPF)
    Bit depth : 24 bits
    Compression mode : Lossy
    Stream size : 931 MiB (26%)
    Title : DTS ENG
    Language : English
    Default : Yes
    Forced : No

    Audio #2
    ID : 3
    Format : AC-3
    Format/Info : Audio Coding 3
    Commercial name : Dolby Digital
    Codec ID : A_AC3
    Duration : 1 h 26 min
    Bit rate mode : Constant
    Bit rate : 384 kb/s
    Channel(s) : 6 channels
    Channel layout : L R C LFE Ls Rs
    Sampling rate : 48.0 kHz
    Frame rate : 31.250 FPS (1536 SPF)
    Compression mode : Lossy
    Stream size : 237 MiB (7%)
    Title : AC-3 THAI
    Language : Thai
    Service kind : Complete Main
    Default : No
    Forced : No

    Text #1
    ID : 4
    Format : PGS
    Muxing mode : zlib
    Codec ID : S_HDMV/PGS
    Codec ID/Info : Picture based subtitle format used on BDs/HD-DVDs
    Duration : 1 h 18 min
    Bit rate : 26.6 kb/s
    Count of elements : 1336
    Stream size : 14.9 MiB (0%)
    Title : PGS THAI
    Language : Thai
    Default : Yes
    Forced : No

    Text #2
    ID : 5
    Format : PGS
    Muxing mode : zlib
    Codec ID : S_HDMV/PGS
    Codec ID/Info : Picture based subtitle format used on BDs/HD-DVDs
    Duration : 1 h 18 min
    Bit rate : 25.4 kb/s
    Count of elements : 1028
    Stream size : 14.3 MiB (0%)
    Title : PGS ENG
    Language : English
    Default : No
    Forced : No



    http://cornfile.com/mri4yzaqazd1

  2. #2
    Junior Member
    สมัครเมื่อ
    Mar 2013
    โพสต์
    8
    Thanks
    0
    Thanked 0 Times in 0 Posts
    โหลดไม่ได้ครับ 182

  3. #3
    Junior Member
    สมัครเมื่อ
    Mar 2013
    โพสต์
    8
    Thanks
    0
    Thanked 0 Times in 0 Posts
    ไฟล์หายครับ

+ ตอบกลับกระทู้

ข้อมูลกระทู้

Users Browsing this Thread

ในขณะนี้มี 1 ท่านดูกระทู้อยู่. (0 สมาชิกและ 1 ผู้เยี่ยมชม)

     

กฎการโพสต์ข้อความ

  • ท่าน ไม่สามารถ ตั้งกระทู้ใหม่ได้
  • ท่าน ไม่สามารถ ตอบกระทู้ได้
  • ท่าน ไม่สามารถ แนบไฟล์ได้
  • ท่าน ไม่สามารถ แก้ไขข้อความโพสต์ได้
  • BB code สถานะ เปิด
  • Smilies สถานะ เปิด
  • [IMG] สถานะ เปิด
  • HTML สถานะ ปิด