Headspace ขอนำเสนอประโยชน์ของการทำสมาธิที่เข้าใจง่ายในแบบฉบั บอนิเมชั่น รวมทั้งแนะนำเทคนิคต่างๆ ที่จะช่วยให้คุณเริ่มฝึกสมาธิไปพร้อมกัน


Format : Matroska
Format version : Version 4
File size : 812 MiB
Duration : 21 min 14 s
Overall bit rate : 5 343 kb/s
Encoded date : UTC 2021-02-23 17:10:25
Writing application : mkvmerge v53.0.0 ('Fool's Gold') 64-bit
Writing library : libebml v1.4.1 + libmatroska v1.6.2

Video
ID : 1
Format : AVC
Format/Info : Advanced Video Codec
Format profile : [email protected]
Format settings : CABAC / 3 Ref Frames
Format settings, CABAC : Yes
Format settings, Reference : 3 frames
Codec ID : V_MPEG4/ISO/AVC
Duration : 21 min 13 s
Bit rate : 4 190 kb/s
Width : 1 920 pixels
Height : 1 080 pixels
Display aspect ratio : 16:9
Frame rate mode : Constant
Frame rate : 23.976 (24000/1001) FPS
Color space : YUV
Chroma subsampling : 4:2:0
Bit depth : 8 bits
Scan type : Progressive
Bits/(Pixel*Frame) : 0.084
Stream size : 636 MiB (78%)
Language : English
Default : Yes
Forced : No

Audio #1
ID : 2
Format : E-AC-3
Format/Info : Enhanced AC-3
Commercial name : Dolby Digital Plus
Codec ID : A_EAC3
Duration : 21 min 14 s
Bit rate mode : Constant
Bit rate : 448 kb/s
Channel(s) : 6 channels
Channel layout : L R C LFE Ls Rs
Sampling rate : 48.0 kHz
Frame rate : 31.250 FPS (1536 SPF)
Compression mode : Lossy
Stream size : 68.1 MiB (8%)
Title : E-AC3 English
Language : English
Service kind : Complete Main
Default : Yes
Forced : No

Audio #2
ID : 3
Format : E-AC-3
Format/Info : Enhanced AC-3
Commercial name : Dolby Digital Plus
Codec ID : A_EAC3
Duration : 21 min 13 s
Bit rate mode : Constant
Bit rate : 640 kb/s
Channel(s) : 6 channels
Channel layout : L R C LFE Ls Rs
Sampling rate : 48.0 kHz
Frame rate : 31.250 FPS (1536 SPF)
Compression mode : Lossy
Stream size : 97.2 MiB (12%)
Title : E-AC3 Thai
Language : Thai
Service kind : Complete Main
Default : No
Forced : No

Text #1
ID : 4
Format : VobSub
Muxing mode : zlib
Codec ID : S_VOBSUB
Codec ID/Info : Picture based subtitle format used on DVDs
Duration : 18 min 52 s
Bit rate : 18.7 kb/s
Count of elements : 265
Stream size : 2.52 MiB (0%)
Title : Sub Thai 1080p
Language : Thai
Default : No
Forced : No

Text #2
ID : 5
Format : UTF-8
Codec ID : S_TEXT/UTF8
Codec ID/Info : UTF-8 Plain Text
Duration : 18 min 52 s
Bit rate : 204 b/s
Count of elements : 265
Stream size : 28.2 KiB (0%)
Title : Sub Thai SRT
Language : Thai
Default : No
Forced : No

Text #3
ID : 6
Format : PGS
Muxing mode : zlib
Codec ID : S_HDMV/PGS
Codec ID/Info : Picture based subtitle format used on BDs/HD-DVDs
Duration : 18 min 52 s
Bit rate : 54.8 kb/s
Count of elements : 530
Stream size : 7.40 MiB (1%)
Title : Sub Thai PGS
Language : Thai
Default : Yes
Forced : No

Text #4
ID : 7
Format : VobSub
Muxing mode : zlib
Codec ID : S_VOBSUB
Codec ID/Info : Picture based subtitle format used on DVDs
Duration : 18 min 30 s
Bit rate : 20.9 kb/s
Count of elements : 278
Stream size : 2.76 MiB (0%)
Title : Sub English 1080p
Language : English
Default : No
Forced : No

Text #5
ID : 8
Format : UTF-8
Codec ID : S_TEXT/UTF8
Codec ID/Info : UTF-8 Plain Text
Duration : 18 min 30 s
Bit rate : 110 b/s
Count of elements : 278
Stream size : 15.0 KiB (0%)
Title : Sub English SRT
Language : English
Default : No
Forced : No

Text #6
ID : 9
Format : PGS
Muxing mode : zlib
Codec ID : S_HDMV/PGS
Codec ID/Info : Picture based subtitle format used on BDs/HD-DVDs
Duration : 18 min 30 s
Bit rate : 57.0 kb/s
Count of elements : 556
Stream size : 7.55 MiB (1%)
Title : Sub English PGS
Language : English
Default : No
Forced : No





1 http://www.filecondo.com/dl.php?f=r2f9931LffIw
2 http://www.filecondo.com/dl.php?f=Lbf8991LffLU
3 http://www.filecondo.com/dl.php?f=1001d11LffNt
4 http://www.filecondo.com/dl.php?f=ceaee41LffOt
5 http://www.filecondo.com/dl.php?f=P1786f1LffPj
6 http://www.filecondo.com/dl.php?f=1517701LffR4
7 http://www.filecondo.com/dl.php?f=h2c3461LffRB
8 http://www.filecondo.com/dl.php?f=O638b71LffT5