+ ตอบกลับกระทู้
สรุปผลการค้นหา 1 ถึง 2 จากทั้งหมด 2
  1. #1
    Administrators รูปส่วนตัว Duckload.us
    สมัครเมื่อ
    Dec 2010
    โพสต์
    125,109
    Thanks
    7
    Thanked 130,096 Times in 57,692 Posts

    Thumbs up [ญี่ปุ่น]-[NETFLIX] Blue, Painful, Fragile (2020) สองเรา เจ็บปวด เปราะบาง-WEB-DL.EAC-3.1080p. [Modified]-[พากย์ญี่ปุ่น 5.1 บรรยายไทย-อังกฤษ]




    คาเอเดะกับฮิซาโนะตั้งชมรมขึ้นมาเพื่อเปลี่ยนแปลงโลก แต่พอฮิซาโนะหายไป คาเอเดะก็ทุ่มสุดตัวเพื่อสานต่ออุดมการณ์ดั้งเดิมของ ชมรมที่เคยวาดฝันกันไว้


    Format : Matroska
    Format version : Version 4
    File size : 4.58 GiB
    Duration : 1 h 58 min
    Overall bit rate : 5 519 kb/s
    Encoded date : UTC 2021-02-24 17:14:50
    Writing application : mkvmerge v53.0.0 ('Fool's Gold') 64-bit
    Writing library : libebml v1.4.1 + libmatroska v1.6.2

    Video
    ID : 1
    Format : AVC
    Format/Info : Advanced Video Codec
    Format profile : [email protected]
    Format settings : CABAC / 3 Ref Frames
    Format settings, CABAC : Yes
    Format settings, Reference : 3 frames
    Codec ID : V_MPEG4/ISO/AVC
    Duration : 1 h 58 min
    Bit rate : 4 797 kb/s
    Width : 1 920 pixels
    Height : 1 036 pixels
    Display aspect ratio : 1.85:1
    Frame rate mode : Constant
    Frame rate : 23.976 (24000/1001) FPS
    Color space : YUV
    Chroma subsampling : 4:2:0
    Bit depth : 8 bits
    Scan type : Progressive
    Bits/(Pixel*Frame) : 0.101
    Stream size : 3.98 GiB (87%)
    Language : Japanese
    Default : Yes
    Forced : No

    Audio
    ID : 2
    Format : E-AC-3
    Format/Info : Enhanced AC-3
    Commercial name : Dolby Digital Plus
    Codec ID : A_EAC3
    Duration : 1 h 58 min
    Bit rate mode : Constant
    Bit rate : 640 kb/s
    Channel(s) : 6 channels
    Channel layout : L R C LFE Ls Rs
    Sampling rate : 48.0 kHz
    Frame rate : 31.250 FPS (1536 SPF)
    Compression mode : Lossy
    Stream size : 544 MiB (12%)
    Title : E-AC3 Japanese
    Language : Japanese
    Service kind : Complete Main
    Default : Yes
    Forced : No

    Text #1
    ID : 3
    Format : VobSub
    Muxing mode : zlib
    Codec ID : S_VOBSUB
    Codec ID/Info : Picture based subtitle format used on DVDs
    Duration : 1 h 58 min
    Bit rate : 11.4 kb/s
    Count of elements : 1459
    Stream size : 9.66 MiB (0%)
    Title : Sub Thai 1080p
    Language : Thai
    Default : No
    Forced : No

    Text #2
    ID : 4
    Format : UTF-8
    Codec ID : S_TEXT/UTF8
    Codec ID/Info : UTF-8 Plain Text
    Duration : 1 h 58 min
    Bit rate : 119 b/s
    Count of elements : 1459
    Stream size : 103 KiB (0%)
    Title : Sub Thai SRT
    Language : Thai
    Default : No
    Forced : No

    Text #3
    ID : 5
    Format : PGS
    Muxing mode : zlib
    Codec ID : S_HDMV/PGS
    Codec ID/Info : Picture based subtitle format used on BDs/HD-DVDs
    Duration : 1 h 58 min
    Bit rate : 34.2 kb/s
    Count of elements : 2918
    Stream size : 28.9 MiB (1%)
    Title : Sub Thai PGS
    Language : Thai
    Default : No
    Forced : No

    Text #4
    ID : 6
    Format : PGS
    Muxing mode : zlib
    Codec ID : S_HDMV/PGS
    Codec ID/Info : Picture based subtitle format used on BDs/HD-DVDs
    Duration : 1 h 58 min
    Bit rate : 56.9 kb/s
    Count of elements : 2918
    Stream size : 48.1 MiB (1%)
    Title : Sub Thai PGS NETFLIX
    Language : Thai
    Default : Yes
    Forced : No

    Text #5
    ID : 7
    Format : VobSub
    Muxing mode : zlib
    Codec ID : S_VOBSUB
    Codec ID/Info : Picture based subtitle format used on DVDs
    Duration : 1 h 58 min
    Bit rate : 9 965 b/s
    Count of elements : 1452
    Stream size : 8.42 MiB (0%)
    Title : Sub English 1080p
    Language : English
    Default : No
    Forced : No

    Text #6
    ID : 8
    Format : UTF-8
    Codec ID : S_TEXT/UTF8
    Codec ID/Info : UTF-8 Plain Text
    Duration : 1 h 58 min
    Bit rate : 46 b/s
    Count of elements : 1452
    Stream size : 40.4 KiB (0%)
    Title : Sub English SRT
    Language : English
    Default : No
    Forced : No

    Text #7
    ID : 9
    Format : PGS
    Muxing mode : zlib
    Codec ID : S_HDMV/PGS
    Codec ID/Info : Picture based subtitle format used on BDs/HD-DVDs
    Duration : 1 h 58 min
    Bit rate : 27.9 kb/s
    Count of elements : 2904
    Stream size : 23.6 MiB (1%)
    Title : Sub English PGS
    Language : English
    Default : No
    Forced : No






    Download:cornfile
    http://cornfile.com/kpsyyq68x9qe
    Download:filecondo
    http://www.filecondo.com/dl.php?f=1b83f11LfAZZ

  2. The Following User Says Thank You to Duckload.us For This Useful Post:

    jackjangri (03-02-2021)

  3. #2
    Senior Member
    สมัครเมื่อ
    Jul 2013
    โพสต์
    1,936
    Thanks
    0
    Thanked 0 Times in 0 Posts
    ขอบคุณครับ

+ ตอบกลับกระทู้

ข้อมูลกระทู้

Users Browsing this Thread

ในขณะนี้มี 1 ท่านดูกระทู้อยู่. (0 สมาชิกและ 1 ผู้เยี่ยมชม)

     

กฎการโพสต์ข้อความ

  • ท่าน ไม่สามารถ ตั้งกระทู้ใหม่ได้
  • ท่าน ไม่สามารถ ตอบกระทู้ได้
  • ท่าน ไม่สามารถ แนบไฟล์ได้
  • ท่าน ไม่สามารถ แก้ไขข้อความโพสต์ได้
  • BB code สถานะ เปิด
  • Smilies สถานะ เปิด
  • [IMG] สถานะ เปิด
  • HTML สถานะ ปิด