+ ตอบกลับกระทู้
สรุปผลการค้นหา 1 ถึง 2 จากทั้งหมด 2
  1. #1
    Administrators รูปส่วนตัว Duckload.us
    สมัครเมื่อ
    Dec 2010
    โพสต์
    125,109
    Thanks
    7
    Thanked 130,096 Times in 57,692 Posts

    Thumbs up [ฝรั่ง]-{สร้างจากเรื่องจริง}**The Last Vermeer (2019)**[เสียงอังกฤษDD5.1 : บรรยายไทย PGS คมชัด + อังกฤษ SRT]-WEB-DL.H.264.1080p. [Modified]-[Soundtrack บรรยายไทย]



    เรื่องย่อ : Claes Bang (THE SQUARE) รับบทเป็นโจเซฟพิลเลอร์ในฉากระทึกขวัญที่น่าทึ่งหลัง สงครามโลกครั้งที่สองซึ่งเป็นเรื่องจริงที่ลืมไม่ลง - เกี่ยวกับทหารที่กำลังสืบสวน Han van Meegeren ศิลปินชื่อดังชาวดัตช์รับบทโดย Guy Pearce (LA CONFIDENTIAL) ซึ่งถูกกล่าวหา สมคบคิดกับพวกนาซี แม้จะมีหลักฐานมากมาย แต่พิลเลอร์ก็เริ่มเชื่อมั่นในความบริสุทธิ์ของฮันมา กขึ้นเรื่อย ๆ และพบว่าตัวเองอยู่ในสถานะที่ไม่น่าจะเป็นไปได้ในการ ต่อสู้เพื่อช่วยชีวิตชายผู้มีสีสันด้วยอดีตอันลึกลับ ภาพยนตร์เรื่องนี้ยังมี Vicky Krieps (PHANTOM THREAD) {แปลโดยกูเกิ้ล}

    Format : Matroska
    Format version : Version 4
    File size : 4.40 GiB
    Duration : 1 h 57 min
    Overall bit rate : 5 352 kb/s
    Movie name : The.Last.Vermeer.2019.1080p.WEB-DL.DD5.1.H.264
    Encoded date : UTC 2021-02-25 10:37:09
    Writing application : mkvmerge v48.0.0 ('Fortress Around Your Heart') 64-bit
    Writing library : libebml v1.4.0 + libmatroska v1.6.0
    Cover : Yes
    Attachments : small_cover.jpg / small_cover_land.jpg / cover.jpg / cover_land.jpg

    Video
    ID : 1
    Format : AVC
    Format/Info : Advanced Video Codec
    Format profile : [email protected]
    Format settings : CABAC / 4 Ref Frames
    Format settings, CABAC : Yes
    Format settings, Reference frames : 4 frames
    Format settings, GOP : M=1, N=2
    Codec ID : V_MPEG4/ISO/AVC
    Duration : 1 h 57 min
    Bit rate : 4 914 kb/s
    Width : 1 920 pixels
    Height : 1 036 pixels
    Display aspect ratio : 1.85:1
    Frame rate mode : Constant
    Frame rate : 23.976 (24000/1001) FPS
    Color space : YUV
    Chroma subsampling : 4:2:0
    Bit depth : 8 bits
    Scan type : Progressive
    Bits/(Pixel*Frame) : 0.103
    Stream size : 4.04 GiB (92%)
    Language : English
    Default : Yes
    Forced : No
    Color range : Limited
    Color primaries : BT.709
    Transfer characteristics : BT.709
    Matrix coefficients : BT.709

    Audio
    ID : 2
    Format : AC-3
    Format/Info : Audio Coding 3
    Commercial name : Dolby Digital
    Codec ID : A_AC3
    Duration : 1 h 57 min
    Bit rate mode : Constant
    Bit rate : 384 kb/s
    Channel(s) : 6 channels
    Channel layout : L R C LFE Ls Rs
    Sampling rate : 48.0 kHz
    Frame rate : 31.250 FPS (1536 SPF)
    Compression mode : Lossy
    Stream size : 323 MiB (7%)
    Language : English
    Service kind : Complete Main
    Default : Yes
    Forced : No

    Text #1
    ID : 3
    Format : PGS
    Muxing mode : zlib
    Codec ID : S_HDMV/PGS
    Codec ID/Info : Picture based subtitle format used on BDs/HD-DVDs
    Duration : 1 h 48 min
    Bit rate : 57.5 kb/s
    Count of elements : 2594
    Stream size : 44.6 MiB (1%)
    Title : Angsana UPC
    Language : Thai
    Default : Yes
    Forced : No

    Text #2
    ID : 4
    Format : PGS
    Muxing mode : zlib
    Codec ID : S_HDMV/PGS
    Codec ID/Info : Picture based subtitle format used on BDs/HD-DVDs
    Duration : 1 h 48 min
    Bit rate : 51.9 kb/s
    Count of elements : 2594
    Stream size : 40.3 MiB (1%)
    Title : Tahoma
    Language : Thai
    Default : No
    Forced : No

    Text #3
    ID : 5
    Format : VobSub
    Muxing mode : zlib
    Codec ID : S_VOBSUB
    Codec ID/Info : Picture based subtitle format used on DVDs
    Duration : 1 h 48 min
    Bit rate : 6 713 b/s
    Count of elements : 1297
    Stream size : 5.21 MiB (0%)
    Title : Angsana UPC
    Language : Thai
    Default : No
    Forced : No

    Text #4
    ID : 6
    Format : VobSub
    Muxing mode : zlib
    Codec ID : S_VOBSUB
    Codec ID/Info : Picture based subtitle format used on DVDs
    Duration : 1 h 48 min
    Bit rate : 6 378 b/s
    Count of elements : 1297
    Stream size : 4.95 MiB (0%)
    Title : Tahoma
    Language : Thai
    Default : No
    Forced : No

    Text #5
    ID : 7
    Format : UTF-8
    Codec ID : S_TEXT/UTF8
    Codec ID/Info : UTF-8 Plain Text
    Duration : 1 h 42 min
    Bit rate : 62 b/s
    Count of elements : 1278
    Stream size : 47.1 KiB (0%)
    Language : English
    Default : No
    Forced : No






    Download:cornfile
    http://cornfile.com/frfxuyk5ycz5
    Download:filecondo
    http://www.filecondo.com/dl.php?f=Vc52051LfCjf

  2. The Following User Says Thank You to Duckload.us For This Useful Post:

    amorn wichian (02-27-2021)

  3. #2
    Senior Member
    สมัครเมื่อ
    Jul 2013
    โพสต์
    1,936
    Thanks
    0
    Thanked 0 Times in 0 Posts
    ขอบคุณครับ

+ ตอบกลับกระทู้

ข้อมูลกระทู้

Users Browsing this Thread

ในขณะนี้มี 1 ท่านดูกระทู้อยู่. (0 สมาชิกและ 1 ผู้เยี่ยมชม)

     

กฎการโพสต์ข้อความ

  • ท่าน ไม่สามารถ ตั้งกระทู้ใหม่ได้
  • ท่าน ไม่สามารถ ตอบกระทู้ได้
  • ท่าน ไม่สามารถ แนบไฟล์ได้
  • ท่าน ไม่สามารถ แก้ไขข้อความโพสต์ได้
  • BB code สถานะ เปิด
  • Smilies สถานะ เปิด
  • [IMG] สถานะ เปิด
  • HTML สถานะ ปิด