+ ตอบกลับกระทู้
สรุปผลการค้นหา 1 ถึง 3 จากทั้งหมด 3
  1. #1
    Administrators รูปส่วนตัว Duckload.us
    สมัครเมื่อ
    Dec 2010
    โพสต์
    125,109
    Thanks
    7
    Thanked 130,096 Times in 57,692 Posts

    Thumbs up [ฝรั่ง]-Freaky (2020) สลับร่างฆ่า ล่าป่วนเมือง-WEB-DL.H.264.720p. [Master]-[พากย์ไทยมาสเตอร์ ไม่มีบรรยาย]



    เรื่องราวของหญิงสาววัย 17 ปี เธอชื่อว่า มิลลี่ เธอกำลังหาทางหนีเอาชีวิตรอดจากความอันตรายที่โหดร้า ยในโรงเรียนของเธอ แต่เธอกลับกลายเป็นคนสำคัญใหม่ของคนที่เชือดเนื้อสัต ว์ นักฆาตกรในเมืองที่เธอพักอาศัยอยู่เมื่อเรื่องโบราณท ี่ซ่อนเร้นทำให้ฆาตกรและหญิงสาว มิลลี่ ฟื้นขึ้นมาในร่างที่สลับกัน พอเธอรู้ว่าเธอมีเวลาแค่ไม่กี่ชั่วโมงที่กลับเข้าร่า งเธอเหมือนเดิมก่อนที่เธอจะสลับเปลี่ยนร่างตลอด ด้วยคำบอกเล่าจากเพื่อนของเธอ มิลลี่จึงได้รีบกลับสู่ร่างเดิมก่อนที่เวลาจะหมด ส่วนฆาตกรก็ได้อยู่ในร่างของหญิงสาวเป็นการปกปิดเพื่ อจะได้ฆ่าคนอื่นได้อย่างเพลิดเพลินในงานโรงเรียน


    Format : Matroska
    Format version : Version 2
    File size : 2.22 GiB
    Duration : 1 h 41 min
    Overall bit rate mode : Constant
    Overall bit rate : 3 122 kb/s
    Movie name : Freaky (2020) สลับร่างฆ่า ล่าป่วนเมือง.trim01
    Encoded date : UTC 2021-02-28 09:01:24
    Writing application : DVDFab 12.0.0.4
    Writing library : libebml v1.3.4 + libmatroska v1.4.5

    Video
    ID : 1
    Format : AVC
    Format/Info : Advanced Video Codec
    Format profile : [email protected]
    Format settings : CABAC / 1 Ref Frames
    Format settings, CABAC : Yes
    Format settings, Reference frames : 1 frame
    Format settings, GOP : M=1, N=24
    Codec ID : V_MPEG4/ISO/AVC
    Duration : 1 h 41 min
    Bit rate mode : Constant
    Bit rate : 2 928 kb/s
    Nominal bit rate : 3 266 kb/s
    Width : 1 280 pixels
    Height : 532 pixels
    Display aspect ratio : 2.40:1
    Frame rate mode : Constant
    Frame rate : 23.976 (24000/1001) FPS
    Color space : YUV
    Chroma subsampling : 4:2:0
    Bit depth : 8 bits
    Scan type : Progressive
    Bits/(Pixel*Frame) : 0.179
    Stream size : 2.08 GiB (94%)
    Default : Yes
    Forced : No
    Color range : Limited
    Color primaries : BT.709
    Transfer characteristics : BT.709
    Matrix coefficients : BT.709

    Audio
    ID : 2
    Format : AC-3
    Format/Info : Audio Coding 3
    Commercial name : Dolby Digital
    Codec ID : A_AC3
    Duration : 1 h 41 min
    Bit rate mode : Constant
    Bit rate : 192 kb/s
    Channel(s) : 2 channels
    Channel layout : L R
    Sampling rate : 48.0 kHz
    Frame rate : 31.250 FPS (1536 SPF)
    Compression mode : Lossy
    Stream size : 140 MiB (6%)
    Service kind : Complete Main
    Default : Yes
    Forced : No





    Download:cornfile
    http://cornfile.com/8azfhxhcw8k0
    Download:filecondo
    http://www.filecondo.com/dl.php?f=De51c21Lgk4Z

  2. The Following 2 Users Say Thank You to Duckload.us For This Useful Post:

    sawara (03-02-2021), Wesker_TOT (03-02-2021)

  3. #2
    Senior Member
    สมัครเมื่อ
    Dec 2013
    โพสต์
    2,655
    Thanks
    4,575
    Thanked 0 Times in 0 Posts
    ขอบคุณครับ...

  4. #3
    Senior Member
    สมัครเมื่อ
    Dec 2013
    โพสต์
    410
    Thanks
    340
    Thanked 0 Times in 0 Posts
    ขอบคุณครับ...

+ ตอบกลับกระทู้

ข้อมูลกระทู้

Users Browsing this Thread

ในขณะนี้มี 1 ท่านดูกระทู้อยู่. (0 สมาชิกและ 1 ผู้เยี่ยมชม)

     

กฎการโพสต์ข้อความ

  • ท่าน ไม่สามารถ ตั้งกระทู้ใหม่ได้
  • ท่าน ไม่สามารถ ตอบกระทู้ได้
  • ท่าน ไม่สามารถ แนบไฟล์ได้
  • ท่าน ไม่สามารถ แก้ไขข้อความโพสต์ได้
  • BB code สถานะ เปิด
  • Smilies สถานะ เปิด
  • [IMG] สถานะ เปิด
  • HTML สถานะ ปิด